1917 2019 BDREMUX 2160p HDR DV-TV SeleZen

Torrent Details


1917 2019 BDREMUX 2160p HDR DV-TV<span style=color:#fc9c6d> seleZen</span>

NAME
1917 2019 BDREMUX 2160p HDR DV-TV seleZen.torrent
CATEGORY
Movies
INFOHASH
b71ccd8aaf49dae0a9483b691208dcdff1c67db9
SIZE
64.6 GB in 2 files
ADDED
Uploaded on 24-03-2020 by our crawler pet called "Spidey".
SWARM
0 seeders & 0 peers
RATING
No votes yet.

Please login to vote for this torrent.


Description

Информация о фильме

Название: 1917

Оригинальное название: 1917

Год выхода: 2019

Жанр: Военный, боевик, история, драма

Режиссер: Сэм Мендес

В ролях: Джордж МакКэй, Дин-Чарльз Чепмен, Марк Стронг, Эндрю Скотт, Ричард Мэдден, Клэр Дюбюрк, Колин Фёрт, Бенедикт Камбербэтч, Дэниэл Мейс, Эдриан Скарборо







О фильме: 6 апреля 1917 года, разгар Первой мировой войны, Западный фронт на севере Франции. Британский генерал поручает капралу Блэйку и его сослуживцу смертельно опасную миссию. Они должны пересечь вражескую территорию, вроде бы оставленную германскими войсками, и доставить приказ об отмене наступления во 2-й батальон Девонширского полка, иначе 1600 солдат попадут в ловушку противника, в том числе и брат Блэйка.



Страна: Великобритания, США, Индия, Испания, Канада

Студия: Amblin Partners, DreamWorks SKG, Neal Street Productions, New Republic Pictures

Продолжительность: 01:58:59

Перевод: Дублированный | iTunes



Качество: BDRemux 2160p

Видео: 3840x2160 at 23.976 fps, MPEG-H HEVC HDR Video, 70100 kbps avg

Аудио: 48 kHz, AC3, 5.1, 384 Kbps | iTunes | RUS |

Субтитры: Русские (Forced, отдельно)







MIGeneral

Complete name : D:Video2221917.2019.BDREMUX.2160p.HDR.DV-TV.seleZen1917.2019.BDREMUX.2160p.HDR.DV-TV.seleZen.mp4

Format : MPEG-4

Format profile : Base Media / Version 2

Codec ID : mp42 (mp42/dby1/isom)

File size : 64.6 GiB

Duration : 1 h 58 min

Overall bit rate : 77.8 Mb/s

Encoded date : UTC 2020-03-24 19:30:10

Tagged date : UTC 2020-03-24 19:30:10



Video #1

ID : 1

Format : HEVC

Format/Info : High Efficiency Video Coding

Format profile : Main [email protected]@High

HDR format : SMPTE ST 2094 App 4, Version 1, HDR10+ Profile B compatible

Codec ID : hev1

Codec ID/Info : High Efficiency Video Coding

Duration : 1 h 58 min

Bit rate : 70.1 Mb/s

Width : 3 840 pixels

Height : 2 160 pixels

Display aspect ratio : 16:9

Frame rate mode : Constant

Frame rate : 23.976 (24000/1001) FPS

Color space : YUV

Chroma subsampling : 4:2:0 (Type 2)

Bit depth : 10 bits

Bits/(Pixel*Frame) : 0.353

Stream size : 58.3 GiB (90%)

Default : No

Encoded date : UTC 2020-03-24 19:30:10

Tagged date : UTC 2020-03-24 19:30:10

Color range : Limited

Color primaries : BT.2020

Transfer characteristics : PQ

Matrix coefficients : BT.2020 non-constant

Mastering display color pri : Display P3

Mastering display luminance : min: 0.0001 cd/m2, max: 1000 cd/m2

Maximum Content Light Level : 1000 cd/m2

Maximum Frame-Average Light : 168 cd/m2

Codec configuration box : hvcC



Video #2

ID : 2

Format : HEVC

Format/Info : High Efficiency Video Coding

Format profile : Main [email protected]@High

HDR format : Dolby Vision, Version 1.0, dvhe.07.06, EL+RPU / SMPTE ST 2086, HDR10 compatible

Codec ID : dvhe

Codec ID/Info : High Efficiency Video Coding with Dolby Vision

Duration : 1 h 58 min

Bit rate : 7 274 kb/s

Width : 1 920 pixels

Height : 1 080 pixels

Display aspect ratio : 16:9

Frame rate mode : Constant

Frame rate : 23.976 (24000/1001) FPS

Color space : YUV

Chroma subsampling : 4:2:0 (Type 2)

Bit depth : 10 bits

Bits/(Pixel*Frame) : 0.146

Stream size : 6.05 GiB (9%)

Default : No

Encoded date : UTC 2020-03-24 19:30:10

Tagged date : UTC 2020-03-24 19:30:10

Color range : Limited

Color primaries : BT.2020

Transfer characteristics : PQ

Matrix coefficients : BT.2020 non-constant

Mastering display color pri : Display P3

Mastering display luminance : min: 0.0001 cd/m2, max: 1000 cd/m2

Codec configuration box : hvcC+dvcC



Audio

ID : 3

Format : AC-3

Format/Info : Audio Coding 3

Commercial name : Dolby Digital

Codec ID : ac-3

Duration : 1 h 58 min

Bit rate mode : Constant

Bit rate : 384 kb/s

Channel(s) : 6 channels

Channel layout : L R C LFE Ls Rs

Sampling rate : 48.0 kHz

Frame rate : 31.250 FPS (1536 SPF)

Compression mode : Lossy

Stream size : 327 MiB (0%)

Language : Russian

Service kind : Complete Main

Default : No

Encoded date : UTC 2020-03-24 19:30:10

Tagged date : UTC 2020-03-24 19:30:10



Релиз от:



Discussion

Comments 0

Post Your Comment

Files in this torrent

FILENAMESIZE
1917.2019.BDREMUX.2160p.HDR.DV-TV.seleZen.mp464.6 GB
1917.2019.BDREMUX.2160p.HDR.DV-TV.seleZen.srt2.2 KB

Alternative Torrents for 'HDR DVTV'.

TORRENT NAMEADDEDSIZESEEDSPEERSHEALTH
6/22/20202 GB38123
6/16/20201.5 GB2215
6/19/20201.9 GB19710
6/25/20201.9 GB1884
6/16/202011.4 GB12213
6/28/20203.4 GB9326
6/28/20206.6 GB83106
6/22/20203.2 GB668
6/18/20209.6 GB4729
6/25/202025.2 GB4626
6/25/202025.5 GB4126
6/17/20201.8 GB3824
6/28/202010.2 GB3421
6/28/202053.8 GB3434
6/25/202017.7 GB314