1917 (2019)

Torrent Details


1917 (2019)

NAME
1917 (2019).torrent
CATEGORY
Movies
INFOHASH
80f220bfbe832339010223c9e60f49389d2ed1d5
SIZE
2.8 GB in 1 file
ADDED
Uploaded on 25-03-2020 by our crawler pet called "Spidey".
SWARM
0 seeders & 0 peers
RATING
No votes yet.

Please login to vote for this torrent.


Description

Информация о фильме

Название: 1917

Оригинальное название: 1917

Год выхода: 2019

Жанр: Военный, история, драма

Режиссер: Сэм Мендес

В ролях: Эндрю Скотт, Бенедикт Камбербэтч, Колин Фёрт, Ричард Мэдден, Дин-Чарльз Чепмен, Джордж МакКэй, Марк Стронг, Дэниэл Мейс, Эдриан Скарборо, Крис Уолли, Пип Картер, Энди Аполло, Пол Тинто, Джозеф Дэвис, Билли Постлтуэйт, Гэбриел Акувудике



О фильме:

6 апреля 1917 года, разгар Первой мировой войны, Западный фронт на севере Франции. Британский генерал поручает капралу Блэйку и его сослуживцу смертельно опасную миссию. Они должны пересечь вражескую территорию, вроде бы оставленную германскими войсками, и доставить приказ об отмене наступления во 2-й батальон Девонширского полка, иначе 1600 солдат попадут в ловушку противника, в том числе и брат Блэйка.







Страна: Великобритания, США

Студия: Amblin Partners, DreamWorks, Neal Street Productions

Продолжительность: 01:58:58

Перевод: Профессиональный (дублированный) iTunes

Субтитры: Русские (Форсированные, Полные), Английские (Full, SDH)



Файл

Формат: Matroska

Качество: BDRip-AVC [BDRemux 1080p]

Видео: AVC, 1152x480 (2.40:1), 2505 kbps, 23.976 fps, 0.189 bit/pixel

Аудио 1: AC3 Dolby Digital, 3/2 (L,C,R,l,r) + LFE ch, 48.0 KHz, 384 Kbps | Дубляж |

Аудио 2: AC3 Dolby Digital, 3/2 (L,C,R,l,r) + LFE ch, 48.0 KHz, 448 Kbps | Original |

Формат субтитров: softsub (SRT)





M/Ix264 [info]: frame I:688 Avg QP:15.58 size: 71391

x264 [info]: frame P:39978 Avg QP:17.97 size: 28000

x264 [info]: frame B:130478 Avg QP:20.72 size: 8172

x264 [info]: consecutive B-frames: 2.0% 4.0% 11.6% 29.2% 16.8% 23.3% 3.3% 1.0% 0.8% 3.7% 0.8% 1.6% 0.6% 0.6% 0.9%





General

Complete name : 1917 (2019).mkv

Format : Matroska

Format version : Version 4

File size : 2.77 GiB

Duration : 1 h 58 min

Overall bit rate : 3 339 kb/s

Movie name : 1917 / 1917 (2019)

Encoded date : UTC 2020-03-24 20:16:17

Writing application : mkvmerge v8.1.0 ('Psychedelic Postcard') 64bit

Writing library : libebml v1.3.1 + libmatroska v1.4.2

Cover : Yes

Attachments : cover.jpg



Video

ID : 1

Format : AVC

Format/Info : Advanced Video Codec

Format profile : [email protected]

Format settings : CABAC / 12 Ref Frames

Format settings, CABAC : Yes

Format settings, Reference : 12 frames

Codec ID : V_MPEG4/ISO/AVC

Duration : 1 h 58 min

Bit rate : 2 505 kb/s

Width : 1 152 pixels

Height : 480 pixels

Display aspect ratio : 2.40:1

Frame rate mode : Constant

Frame rate : 23.976 (24000/1001) FPS

Color space : YUV

Chroma subsampling : 4:2:0

Bit depth : 8 bits

Scan type : Progressive

Bits/(Pixel*Frame) : 0.189

Stream size : 2.08 GiB (75%)

Title : 1917 / 1917 (2019) By optik.1557

Writing library : x264 core 159 r2991 1771b55

Encoding settings : cabac=1 / ref=12 / deblock=1:-3:-2 / analyse=0x3:0x133 / me=umh / subme=10 / psy=1 / psy_rd=1.05:0.01 / mixed_ref=1 / me_range=32 / chroma_me=1 / trellis=2 / 8x8dct=1 / cqm=0 / deadzone=21,11 / fast_pskip=0 / chroma_qp_offset=-2 / threads=6 / lookahead_threads=1 / sliced_threads=0 / nr=0 / decimate=1 / interlaced=0 / bluray_compat=0 / constrained_intra=0 / bframes=14 / b_pyramid=2 / b_adapt=2 / b_bias=0 / direct=1 / weightb=1 / open_gop=0 / weightp=2 / keyint=250 / keyint_min=23 / scenecut=40 / intra_refresh=0 / rc_lookahead=60 / rc=crf / mbtree=0 / crf=18.1 / qcomp=0.70 / qpmin=0 / qpmax=69 / qpstep=4 / vbv_maxrate=50000 / vbv_bufsize=62500 / crf_max=0.0 / nal_hrd=none / filler=0 / ip_ratio=1.40 / pb_ratio=1.30 / aq=3:0.85

Language : English

Default : Yes

Forced : No

Color range : Limited

Matrix coefficients : BT.709



Audio #1

ID : 2

Format : AC-3

Format/Info : Audio Coding 3

Commercial name : Dolby Digital

Codec ID : A_AC3

Duration : 1 h 58 min

Bit rate mode : Constant

Bit rate : 384 kb/s

Channel(s) : 6 channels

Channel layout : L R C LFE Ls Rs

Sampling rate : 48.0 kHz

Frame rate : 31.250 FPS (1536 SPF)

Compression mode : Lossy

Stream size : 327 MiB (11%)

Title : Дубляж (iTunes)

Language : Russian

Service kind : Complete Main

Default : Yes

Forced : No



Audio #2

ID : 3

Format : AC-3

Format/Info : Audio Coding 3

Commercial name : Dolby Digital

Codec ID : A_AC3

Duration : 1 h 58 min

Bit rate mode : Constant

Bit rate : 448 kb/s

Channel(s) : 6 channels

Channel layout : L R C LFE Ls Rs

Sampling rate : 48.0 kHz

Frame rate : 31.250 FPS (1536 SPF)

Compression mode : Lossy

Stream size : 381 MiB (13%)

Title : Original

Language : English

Service kind : Complete Main

Default : No

Forced : No



Text #1

ID : 4

Format : UTF-8

Codec ID : S_TEXT/UTF8

Codec ID/Info : UTF-8 Plain Text

Duration : 1 h 31 min

Bit rate : 1 b/s

Count of elements : 25

Stream size : 1.21 KiB (0%)

Title : Форсированные

Language : Russian

Default : Yes

Forced : No



Text #2

ID : 5

Format : UTF-8

Codec ID : S_TEXT/UTF8

Codec ID/Info : UTF-8 Plain Text

Duration : 1 h 49 min

Bit rate : 57 b/s

Count of elements : 837

Stream size : 45.7 KiB (0%)

Title : Полные

Language : Russian

Default : No

Forced : No



Text #3

ID : 6

Format : UTF-8

Codec ID : S_TEXT/UTF8

Codec ID/Info : UTF-8 Plain Text

Duration : 1 h 45 min

Bit rate : 35 b/s

Count of elements : 937

Stream size : 27.1 KiB (0%)

Title : Full

Language : English

Default : No

Forced : No



Text #4

ID : 7

Format : UTF-8

Codec ID : S_TEXT/UTF8

Codec ID/Info : UTF-8 Plain Text

Duration : 1 h 58 min

Bit rate : 40 b/s

Count of elements : 1473

Stream size : 35.4 KiB (0%)

Title : SDH

Language : English

Default : No

Forced : No



Menu

00:00:00.000 : en:Studio Logo

00:00:48.000 : en:Title Sequence

00:01:01.000 : en:Scene 3

00:11:21.000 : en:Scene 4

00:16:29.000 : en:Scene 5

00:25:45.000 : en:Scene 6

00:30:51.000 : en:Scene 7

00:44:37.000 : en:Scene 8

00:54:56.000 : en:Scene 9

01:06:34.000 : en:Scene 10

01:19:57.000 : en:Scene 11

01:23:00.000 : en:Scene 12

01:38:20.000 : en:Scene 13

01:49:31.000 : en:End CreditsСкриншоты

Discussion

Comments 0

Post Your Comment

Files in this torrent

FILENAMESIZE
1917 (2019).mkv2.8 GB

Alternative Torrents for '1917 (2019)'.

TORRENT NAMEADDEDSIZESEEDSPEERSHEALTH
6/26/202026.8 GB415
6/25/2020747 MB32
6/12/20203.9 GB00
6/11/20202.2 GB00
6/2/20209.4 GB00
6/1/202011.2 GB00
5/31/20208.8 GB00
5/31/202016.8 GB00
5/29/202013.8 GB00
5/28/20202.1 GB00
5/28/20201.5 GB00
5/28/202013.9 GB00
5/24/202012.5 GB00
5/22/20208.7 GB00
5/21/20201.5 GB00