1917 2019 BDRip(AVC) OlLanDGroup

Torrent Details


1917 2019 BDRip(AVC)<span style=color:#fc9c6d> OlLanDGroup</span>

NAME
1917 2019 BDRip(AVC) OlLanDGroup.torrent
CATEGORY
Movies
INFOHASH
7a23e6e9c2756acbd4bf8c7464425de9298c6e79
SIZE
746 MB in 1 file
ADDED
Uploaded on 27-03-2020 by our crawler pet called "Spidey".
SWARM
0 seeders & 0 peers
RATING
No votes yet.

Please login to vote for this torrent.


Description

Информация о фильме

Название: 1917

Оригинальное название: 1917

Год выхода: 2019

Жанр: военный, боевик, драма, история

Режиссер: Сэм Мендес

В ролях: Эндрю Скотт, Бенедикт Камбербэтч, Колин Фёрт, Ричард Мэдден, Дин-Чарльз Чепмен, Джордж МакКэй, Марк Стронг, Дэниэл Мейс, Эдриан Скарборо, Клэр Дюбюрк и другие.



О фильме:

6 апреля 1917 года, разгар Первой мировой войны, Западный фронт на севере Франции. Британский генерал поручает капралу Блэйку и его сослуживцу смертельно опасную миссию. Они должны пересечь вражескую территорию, вроде бы оставленную германскими войсками, и доставить приказ об отмене наступления во 2-й батальон Девонширского полка, иначе 1600 солдат попадут в ловушку противника, в том числе и брат Блэйка.







Страна: США, Великобритания, Индия, Испания, Канада

Студия: Amblin Partners, DreamWorks, Neal Street Productions

Продолжительность: 01:58:58

Перевод: Дублированный | iTunes



Файл

Формат: MKV

Качество: BDRip-AVC

Источник: |1917.2019.BDREMUX.1080p.seleZen|

Видео: 720x300 (2.40:1), 23.976 fps, x264 ~811 kbps avg, 0.157 bit/pixel

Звук: 48 kHz, HE-AAC, 2 ch, ~64 kbps avg | RUS

Субтитры: Русские (Forced, full), английские

Дополнительно: Сохранены оригинальные чаптеры.



Сэмпл: http://sendfile.su/1552457



Релиз от:

MediaInfo:Format : Matroska

Format version : Version 4

File size : 746 MiB

Duration : 1 h 58 min

Overall bit rate : 877 kb/s

Movie name : 1917 / 1917 (2019) BDRip(AVC) #Skandar# OlLanDGroup

Encoded date : UTC 2020-03-27 01:08:13

Writing application : mkvmerge v31.0.0 ('Dolores In A Shoestand') 64-bit

Writing library : libebml v1.3.6 + libmatroska v1.4.9



Video

ID : 1

Format : AVC

Format/Info : Advanced Video Codec

Format profile : [email protected]

Format settings : CABAC / 10 Ref Frames

Format settings, CABAC : Yes

Format settings, ReFrames : 10 frames

Codec ID : V_MPEG4/ISO/AVC

Duration : 1 h 58 min

Bit rate : 811 kb/s

Width : 720 pixels

Height : 300 pixels

Display aspect ratio : 2.40:1

Frame rate mode : Constant

Frame rate : 23.976 (24000/1001) FPS

Color space : YUV

Chroma subsampling : 4:2:0

Bit depth : 8 bits

Scan type : Progressive

Bits/(Pixel*Frame) : 0.157

Stream size : 690 MiB (92%)

Title : 1917 / 1917 (2019) BDRip(AVC) #Skandar# OlLanDGroup

Writing library : x264 core 146 r2538 121396c

Encoding settings : cabac=1 / ref=10 / deblock=1:-3:-3 / analyse=0x3:0x133 / me=umh / subme=11 / psy=1 / psy_rd=0.97:0.05 / mixed_ref=1 / me_range=48 / chroma_me=1 / trellis=2 / 8x8dct=1 / cqm=0 / deadzone=21,11 / fast_pskip=0 / chroma_qp_offset=-3 / threads=6 / lookahead_threads=1 / sliced_threads=0 / nr=0 / decimate=0 / interlaced=0 / bluray_compat=0 / constrained_intra=0 / bframes=11 / b_pyramid=2 / b_adapt=2 / b_bias=0 / direct=3 / weightb=1 / open_gop=0 / weightp=2 / keyint=240 / keyint_min=23 / scenecut=40 / intra_refresh=0 / rc_lookahead=40 / rc=2pass / mbtree=0 / bitrate=811 / ratetol=1.0 / qcomp=0.60 / qpmin=0 / qpmax=69 / qpstep=4 / cplxblur=20.0 / qblur=0.5 / vbv_maxrate=50000 / vbv_bufsize=62500 / nal_hrd=none / filler=0 / ip_ratio=1.40 / pb_ratio=1.30 / aq=1:1.00

Language : English

Default : Yes

Forced : No



Audio

ID : 2

Format : AAC LC SBR

Format/Info : Advanced Audio Codec Low Complexity with Spectral Band Replication

Commercial name : HE-AAC

Format settings : Explicit

Codec ID : A_AAC-2

Duration : 1 h 58 min

Bit rate : 64.0 kb/s

Channel(s) : 2 channels

Channel layout : L R

Sampling rate : 48.0 kHz

Frame rate : 23.438 FPS (2048 SPF)

Compression mode : Lossy

Delay relative to video : 31 ms

Stream size : 54.5 MiB (7%)

Title : DUB | iTunes

Language : Russian

Default : Yes

Forced : No



Text #1

ID : 3

Format : UTF-8

Codec ID : S_TEXT/UTF8

Codec ID/Info : UTF-8 Plain Text

Duration : 1 h 31 min

Bit rate : 1 b/s

Count of elements : 25

Stream size : 1.30 KiB (0%)

Title : Forced

Language : Russian

Default : Yes

Forced : Yes



Text #2

ID : 4

Format : UTF-8

Codec ID : S_TEXT/UTF8

Codec ID/Info : UTF-8 Plain Text

Duration : 1 h 49 min

Bit rate : 57 b/s

Count of elements : 837

Stream size : 45.7 KiB (0%)

Title : Full

Language : Russian

Default : No

Forced : No



Text #3

ID : 5

Format : UTF-8

Codec ID : S_TEXT/UTF8

Codec ID/Info : UTF-8 Plain Text

Duration : 1 h 45 min

Bit rate : 35 b/s

Count of elements : 937

Stream size : 27.1 KiB (0%)

Title : Full

Language : English

Default : No

Forced : No



Text #4

ID : 6

Format : UTF-8

Codec ID : S_TEXT/UTF8

Codec ID/Info : UTF-8 Plain Text

Duration : 1 h 45 min

Bit rate : 40 b/s

Count of elements : 1100

Stream size : 31.2 KiB (0%)

Title : SDH

Language : English

Default : No

Forced : No



Menu

00:00:00.000 : en:Chapter 01

00:04:59.424 : en:Chapter 02

00:08:19.374 : en:Chapter 03

00:13:26.639 : en:Chapter 04

00:16:38.789 : en:Chapter 05

00:23:32.494 : en:Chapter 06

00:30:28.660 : en:Chapter 07

00:35:34.549 : en:Chapter 08

00:42:25.376 : en:Chapter 09

00:51:34.091 : en:Chapter 10

00:56:36.310 : en:Chapter 11

01:02:29.079 : en:Chapter 12

01:06:33.573 : en:Chapter 13

01:12:04.320 : en:Chapter 14

01:19:45.197 : en:Chapter 15

01:28:47.822 : en:Chapter 16

01:33:43.451 : en:Chapter 17

01:38:11.594 : en:Chapter 18

01:41:43.681 : en:Chapter 19

01:49:46.580 : en:Chapter 20

Скриншоты



Discussion

Comments 0

Post Your Comment

Files in this torrent

FILENAMESIZE
1917.2019.BDRip(AVC).OlLanDGroup.mkv746.3 MB

Alternative Torrents for 'AVC'.

TORRENT NAMEADDEDSIZESEEDSPEERSHEALTH
7/2/2020994 MB60879
7/2/2020492 MB32670
7/9/2020856 MB212105
7/9/20201.6 GB20892
7/2/20201.5 GB20623
6/28/20201.2 GB17336
6/30/20201.3 GB15615
7/12/2020859 MB14244
7/9/20201.5 GB13214
7/9/20209.7 GB13027
7/10/20202.5 GB12641
7/9/20203.3 GB11711
6/30/2020742 MB11722
Yesterday1.2 GB10165
Yesterday661 MB99238