Birds Of Prey And The Fantabulous Emancipation Of One Harley Quinn (2020) 2160p SDR 5 1 X265 10bit Phun Psyz

Torrent Details

Birds of Prey and the Fantabulous Emancipation of One Harley Quinn (2020) 2160p SDR 5 1 x265 10bit Phun Psyz
Birds of Prey and the Fantabulous Emancipation of One Harley Quinn (2020) 2160p SDR 5 1 x265 10bit Phun Psyz

NAME
Birds of Prey and the Fantabulous Emancipation of One Harley Quinn (2020) 2160p SDR 5 1 x265 10bit Phun Psyz.torrent
CATEGORY
Movies
INFOHASH
72396ce035df204e7d6eb846504f30ec59d608ff
SIZE
3.3 GB in 1 file
ADDED
Uploaded on 28-03-2020 by our crawler pet called "Spidey".
SWARM
0 seeders & 0 peers
RATING
No votes yet.

Please login to vote for this torrent.


Description

www.imdb.com/title/tt7713068/



After splitting with the Joker, Harley Quinn joins superheroes Black Canary, Huntress and Renee Montoya to save a young girl from an evil crime lord.



Source: Telly (WebDl)







Format                      : Matroska

Format version              : Version 4

File size                   : 3.28 GiB

Duration                    : 1 h 48 min

Overall bit rate            : 4 314 kb/s

Writing application         : HandBrake 1.2.0 2018121700

Writing library             : Lavf58.20.100



Video

ID                          : 1

Format                      : HEVC

Format/Info                 : High Efficiency Video Coding

Format profile              : Main [email protected]@High

Codec ID                    : V_MPEGH/ISO/HEVC

Duration                    : 1 h 48 min

Bit rate                    : 3 908 kb/s

Width                       : 3 840 pixels

Height                      : 1 600 pixels

Display aspect ratio        : 2.40:1

Frame rate mode             : Constant

Frame rate                  : 23.976 (24000/1001) FPS

Color space                 : YUV

Chroma subsampling          : 4:2:0

Bit depth                   : 10 bits

Bits/(Pixel*Frame)          : 0.027

Stream size                 : 2.97 GiB (91%)

Writing library             : x265 2.9:[Windows][GCC 7.1.0][64 bit] 10bit

Color range                 : Limited

Color primaries             : BT.709

Transfer characteristics    : BT.709

Matrix coefficients         : BT.709



Audio

ID                          : 2

Format                      : AC-3

Format/Info                 : Audio Coding 3

Commercial name             : Dolby Digital

Codec ID                    : A_AC3

Duration                    : 1 h 48 min

Bit rate mode               : Constant

Bit rate                    : 320 kb/s

Channel(s)                  : 6 channels

Channel layout              : L R C LFE Ls Rs

Sampling rate               : 48.0 kHz

Frame rate                  : 31.250 FPS (1536 SPF)

Bit depth                   : 16 bits

Compression mode            : Lossy

Delay relative to video     : -5 ms

Stream size                 : 249 MiB (7%)

Title                       : Surround

Language                    : English

Service kind                : Complete Main

Default                     : Yes

Forced                      : No



Text

Language                    : English

Language                    : English

Default                     : No

Forced                      : No

Discussion

Comments 0

Post Your Comment

Files in this torrent

FILENAMESIZE
Birds of Prey and the Fantabulous Emancipation of One Harley Quinn (2020) 2160p SDR 5.1 x265 10bit Phun Psyz.mkv3.3 GB

Alternative Torrents for 'Birds of Prey and Fantabulous Emancipation of One Harley Quinn SDR bit Phun Psyz'.

TORRENT NAMEADDEDSIZESEEDSPEERSHEALTH
8/3/20201.2 GB48223208
8/8/20201.3 GB28241048
8/8/2020696 MB1897827
Yesterday1.4 GB1413305
8/8/2020696 MB1302176
Yesterday702 MB1120274
8/8/2020486 MB1115811
8/4/2020797 MB1003192
7/25/20201.5 GB99935
8/1/20201.3 GB97622
8/3/20201.3 GB91531
8/3/20201.5 GB897135
8/8/2020761 MB866124
8/3/20201.5 GB806185
8/3/2020703 MB74619