1917 [2019] 1080p 10bit (Obit) (1)

Torrent Details


1917 [2019] 1080p 10bit (Obit) (1)

NAME
1917 [2019] 1080p 10bit (Obit) (1).torrent
CATEGORY
Movies
INFOHASH
b82807dcfee168a751ee25eb2ae8f6299fff746b
SIZE
5.2 GB in 1 file
ADDED
Uploaded on 29-03-2020 by our crawler pet called "Spidey".
SWARM
0 seeders & 0 peers
RATING
No votes yet.

Please login to vote for this torrent.


Description

Год выхода: 2019

Страна / Студия: США, Великобритания, Индия, Испания, Канада / DreamWorks, Reliance Entertainment, New Republic Pictures

Жанр: военный, боевик, драма, история

Продолжительность: 01:58:58

Перевод: Дублированный (iTunes)



Режиссер: Сэм Мендес

В ролях: Джордж МакКэй, Дин-Чарльз Чепмен, Марк Стронг, Эндрю Скотт, Ричард Мэдден, Клэр Дюбюрк, Колин Фёрт, Бенедикт Камбербэтч, Дэниэл Мейс, Эдриан Скарборо



Описание: 6 апреля 1917 года, разгар Первой мировой войны, Западный фронт на севере Франции. Британский генерал поручает капралу Блэйку и его сослуживцу смертельно опасную миссию. Они должны пересечь вражескую территорию, вроде бы оставленную германскими войсками, и доставить приказ об отмене наступления во 2-й батальон Девонширского полка, иначе 1600 солдат попадут в ловушку противника, в том числе и брат Блэйка.



Качество: BDRip 1080p

Видео: HEVC/H.265, 1920x800, ~5231 Kbps

Аудио 1: AC3, 6 ch, 384 Kbps - Русский, дублированный (iTunes)

Аудио 2: AC3, 6 ch, 640 Kbps - Английский

Субтитры: Русские (форсированные, полные), английские (полные, SDH)



MediainfoОбщее

Уникальный идентификатор : 319744944370713069885654730754863788704 (0xF08CA2E4191431F61CF4B7367A01F2A0)

Полное имя : R:1917 [2019] 1080p 10bit (Obit) (1).mkv

Формат : Matroska

Версия формата : Version 4 / Version 2

Размер файла : 5,20 Гбайт

Продолжительность : 1 ч. 58 м.

Общий поток : 6258 Кбит/сек

Дата кодирования : UTC 2020-03-29 14:05:15

Программа кодирования : mkvmerge v28.2.0 ('The Awakening') 64-bit

Библиотека кодирования : libebml v1.3.6 + libmatroska v1.4.9

Обложка : Yes

Attachments : cover.jpg



Видео

Идентификатор : 1

Формат : HEVC

Формат/Информация : High Efficiency Video Coding

Профиль формата : Main [email protected]@Main

Идентификатор кодека : V_MPEGH/ISO/HEVC

Продолжительность : 1 ч. 58 м.

Битрейт : 5231 Кбит/сек

Ширина : 1920 пикселей

Высота : 800 пикселей

Соотношение сторон : 2,40:1

Режим частоты кадров : Постоянный

Частота кадров : 23,976 (24000/1001) кадра/сек

Цветовое пространство : YUV

Субдискретизация насыщенности : 4:2:0

Битовая глубина : 10 бит

Бит/(Пиксели*Кадры) : 0.142

Размер потока : 4,35 Гбайт (84%)

Библиотека кодирования : x265 3.3+1-g554c887ac:[Windows][MSVC 1924][64 bit] 10bit

Настройки программы : cpuid=1111039 / frame-threads=3 / numa-pools=12 / wpp / no-pmode / no-pme / no-psnr / ssim / log-level=2 / input-csp=1 / input-res=1920x800 / interlace=0 / total-frames=171144 / level-idc=0 / high-tier=1 / uhd-bd=0 / ref=3 / no-allow-non-conformance / no-repeat-headers / annexb / no-aud / no-hrd / info / hash=0 / no-temporal-layers / open-gop / min-keyint=23 / keyint=250 / gop-lookahead=0 / bframes=8 / b-adapt=2 / b-pyramid / bframe-bias=0 / rc-lookahead=80 / lookahead-slices=5 / scenecut=40 / hist-scenecut=0 / radl=0 / no-splice / no-intra-refresh / ctu=64 / min-cu-size=8 / no-rect / no-amp / max-tu-size=32 / tu-inter-depth=1 / tu-intra-depth=1 / limit-tu=0 / rdoq-level=0 / dynamic-rd=0.00 / no-ssim-rd / signhide / no-tskip / nr-intra=0 / nr-inter=0 / no-constrained-intra / no-strong-intra-smoothing / max-merge=3 / limit-refs=1 / no-limit-modes / me=3 / subme=5 / merange=57 / temporal-mvp / no-frame-dup / no-hme / weightp / no-weightb / no-analyze-src-pics / deblock=0:0 / sao / no-sao-non-deblock / rd=3 / selective-sao=4 / early-skip / no-rskip / no-fast-intra / no-tskip-fast / no-cu-lossless / b-intra / no-splitrd-skip / rdpenalty=0 / psy-rd=2.00 / psy-rdoq=0.00 / no-rd-refine / no-lossless / cbqpoffs=0 / crqpoffs=0 / rc=crf / crf=18.0 / qcomp=0.60 / qpstep=4 / stats-write=0 / stats-read=0 / ipratio=1.40 / pbratio=1.30 / aq-mode=3 / aq-strength=1.00 / cutree / zone-count=0 / no-strict-cbr / qg-size=32 / no-rc-grain / qpmax=69 / qpmin=0 / no-const-vbv / sar=0 / overscan=0 / videoformat=5 / range=0 / colorprim=2 / transfer=2 / colormatrix=2 / chromaloc=0 / display-window=0 / cll=0,0 / min-luma=0 / max-luma=1023 / log2-max-poc-lsb=8 / vui-timing-info / vui-hrd-info / slices=1 / no-opt-qp-pps / no-opt-ref-list-length-pps / no-multi-pass-opt-rps / scenecut-bias=0.05 / hist-threshold=0.01 / no-opt-cu-delta-qp / no-aq-motion / no-hdr10 / no-hdr10-opt / no-dhdr10-opt / no-idr-recovery-sei / analysis-reuse-level=0 / analysis-save-reuse-level=0 / analysis-load-reuse-level=0 / scale-factor=0 / refine-intra=0 / refine-inter=0 / refine-mv=1 / refine-ctu-distortion=0 / no-limit-sao / ctu-info=0 / no-lowpass-dct / refine-analysis-type=0 / copy-pic=1 / max-ausize-factor=1.0 / no-dynamic-refine / no-single-sei / no-hevc-aq / no-svt / no-field / qp-adaptation-range=1.00 / no-scenecut-aware-qpconformance-window-offsets / right=0 / bottom=0

Default : Да

Forced : Нет



Аудио #1

Идентификатор : 2

Формат : AC-3

Формат/Информация : Audio Coding 3

Идентификатор кодека : A_AC3

Продолжительность : 1 ч. 58 м.

Вид битрейта : Постоянный

Битрейт : 384 Кбит/сек

Каналы : 6 каналов

Расположение каналов : Front: L C R, Side: L R, LFE

Частота : 48,0 КГц

Частота кадров : 31,250 кадров/сек (1536 SPF)

Битовая глубина : 16 бит

Метод сжатия : С потерями

Размер потока : 327 Мбайт (6%)

Заголовок : Дубляж - iTunes

Язык : Russian

ServiceKind/Strin : Complete Main

Default : Да

Forced : Нет



Аудио #2

Идентификатор : 3

Формат : AC-3

Формат/Информация : Audio Coding 3

Идентификатор кодека : A_AC3

Продолжительность : 1 ч. 58 м.

Вид битрейта : Постоянный

Битрейт : 640 Кбит/сек

Каналы : 6 каналов

Расположение каналов : Front: L C R, Side: L R, LFE

Частота : 48,0 КГц

Частота кадров : 31,250 кадров/сек (1536 SPF)

Битовая глубина : 16 бит

Метод сжатия : С потерями

Размер потока : 545 Мбайт (10%)

Заголовок : Original

Язык : English

ServiceKind/Strin : Complete Main

Default : Нет

Forced : Нет



Текст #1

Идентификатор : 4

Формат : UTF-8

Идентификатор кодека : S_TEXT/UTF8

Идентификатор кодека/Информация : UTF-8 Plain Text

Продолжительность : 1 ч. 31 м.

Битрейт : 1 бит/сек

ElementCount : 25

Размер потока : 1,21 Кбайт (0%)

Заголовок : русские, форсированные

Язык : Russian

Default : Да

Forced : Нет



Текст #2

Идентификатор : 5

Формат : UTF-8

Идентификатор кодека : S_TEXT/UTF8

Идентификатор кодека/Информация : UTF-8 Plain Text

Продолжительность : 1 ч. 49 м.

Битрейт : 57 бит/сек

ElementCount : 837

Размер потока : 45,7 Кбайт (0%)

Заголовок : Full

Язык : Russian

Default : Нет

Forced : Нет



Текст #3

Идентификатор : 6

Формат : UTF-8

Идентификатор кодека : S_TEXT/UTF8

Идентификатор кодека/Информация : UTF-8 Plain Text

Продолжительность : 1 ч. 45 м.

Битрейт : 35 бит/сек

ElementCount : 937

Размер потока : 27,1 Кбайт (0%)

Заголовок : Full

Язык : English

Default : Нет

Forced : Нет



Текст #4

Идентификатор : 7

Формат : UTF-8

Идентификатор кодека : S_TEXT/UTF8

Идентификатор кодека/Информация : UTF-8 Plain Text

Продолжительность : 1 ч. 45 м.

Битрейт : 40 бит/сек

ElementCount : 1100

Размер потока : 31,2 Кбайт (0%)

Заголовок : SDH

Язык : English

Default : Нет

Forced : Нет



Меню

00:00:00.000 : en:Chapter 1

00:04:59.424 : en:Chapter 2

00:08:19.374 : en:Chapter 3

00:13:26.639 : en:Chapter 4

00:16:38.789 : en:Chapter 5

00:23:32.494 : en:Chapter 6

00:30:28.660 : en:Chapter 7

00:35:34.549 : en:Chapter 8

00:42:25.376 : en:Chapter 9

00:51:34.091 : en:Chapter 10

00:56:36.310 : en:Chapter 11

01:02:29.079 : en:Chapter 12

01:06:33.573 : en:Chapter 13

01:12:04.320 : en:Chapter 14

01:19:45.197 : en:Chapter 15

01:28:47.822 : en:Chapter 16

01:33:43.451 : en:Chapter 17

01:38:11.594 : en:Chapter 18

01:41:43.681 : en:Chapter 19

01:49:46.580 : en:Chapter 20

Discussion

Comments 0

Post Your Comment

Files in this torrent

FILENAMESIZE
1917 [2019] 1080p 10bit (Obit) (1).mkv5.2 GB

Alternative Torrents for 'bit Obit'.

TORRENT NAMEADDEDSIZESEEDSPEERSHEALTH
7/10/20201.4 GB10922
Yesterday4.1 GB6235
7/10/20201.4 GB359
7/11/2020221 MB2514
Yesterday2.7 GB2410
7/11/2020478 MB2211
7/7/202020.9 GB226
7/10/20202.7 GB218
7/7/20201.7 GB160
6/30/20209.7 GB137
7/7/20204.2 GB114
7/2/20204.7 GB100
6/30/20201.3 GB104
7/10/20201.4 GB74
Yesterday7.8 GB43