Bad Boys For Life 2020 1080P Web-Dl H264 Ac3 DD 5.1

Torrent Details

Bad Boys For Life 2020 1080P Web-Dl H264 Ac3 DD 5.1
Bad Boys For Life 2020 1080P Web-Dl H264 Ac3 DD 5.1

NAME
Bad Boys For Life 2020 1080P Web-Dl H264 Ac3 DD 5.1.torrent
CATEGORY
Movies
INFOHASH
350c33e8909836303d6955b4657741e062f82e05
SIZE
2.2 GB in 3 files
ADDED
Uploaded on 30-03-2020 by our crawler pet called "Spidey".
SWARM
0 seeders & 0 peers
RATING
No votes yet.

Please login to vote for this torrent.


Description

Bad Boys For Life.2020.1080P.Web-Dl.H264.Ac3 DD 5.1[MKVFlix]





General



Complete name                            : [WwW.MKVFlix.PW]Bad Boys For Life.2020.1080P.Web-Dl.H264.Ac3 DD 5.1[WwW.MKVFlix.PW].mkv

Format                                   : Matroska

Format version                           : Version 4

File size                                : 2.21 GiB

Duration                                 : 2 h 3 min

Overall bit rate                         : 2 548 kb/s

Movie name                               : [WwW.MKVFlix.PW]

Encoded date                             : UTC 2020-03-30 19:06:00

Writing application                      : mkvmerge v44.0.0 ('Domino') 64-bit

Writing library                          : libebml v1.3.10 + libmatroska v1.5.2



Video

ID                                       : 1

Format                                   : AVC

Format/Info                              : Advanced Video Codec

Format profile                           : [email protected]

Format settings                          : CABAC / 4 Ref Frames

Format settings, CABAC                   : Yes

Format settings, Reference frames        : 4 frames

Codec ID                                 : V_MPEG4/ISO/AVC

Duration                                 : 2 h 3 min

Bit rate                                 : 2 200 kb/s

Width                                    : 1 920 pixels

Height                                   : 790 pixels

Display aspect ratio                     : 2.40:1

Frame rate mode                          : Constant

Frame rate                               : 30.000 FPS

Color space                              : YUV

Chroma subsampling                       : 4:2:0

Bit depth                                : 8 bits

Scan type                                : Progressive

Bits/(Pixel*Frame)                       : 0.048

Stream size                              : 1.87 GiB (85%)

Title                                    : [WwW.MKVFlix.PW]

Writing library                          : x264 core 157 r2935 545de2f

Encoding settings                        : cabac=1 / ref=2 / deblock=1:0:0 / analyse=0x1:0x111 / me=hex / subme=6 / psy=1 / psy_rd=1.00:0.00 / mixed_ref=1 / me_range=16 / chroma_me=1 / trellis=1 / 8x8dct=0 / cqm=0 / deadzone=21,11 / fast_pskip=1 / chroma_qp_offset=-2 / threads=9 / lookahead_threads=1 / sliced_threads=0 / nr=0 / decimate=1 / interlaced=0 / bluray_compat=0 / constrained_intra=0 / bframes=3 / b_pyramid=2 / b_adapt=1 / b_bias=0 / direct=1 / weightb=1 / open_gop=0 / weightp=1 / keyint=300 / keyint_min=30 / scenecut=40 / intra_refresh=0 / rc_lookahead=30 / rc=abr / mbtree=1 / bitrate=2200 / ratetol=1.0 / qcomp=0.60 / qpmin=0 / qpmax=69 / qpstep=4 / vbv_maxrate=20000 / vbv_bufsize=25000 / nal_hrd=none / filler=0 / ip_ratio=1.40 / aq=1:1.00

Default                                  : Yes

Forced                                   : No

Color range                              : Limited

Color primaries                          : BT.709

Transfer characteristics                 : BT.709

Matrix coefficients                      : BT.709



Audio

ID                                       : 2

Format                                   : AC-3

Format/Info                              : Audio Coding 3

Commercial name                          : Dolby Digital

Codec ID                                 : A_AC3

Duration                                 : 2 h 3 min

Bit rate mode                            : Constant

Bit rate                                 : 384 kb/s

Channel(s)                               : 6 channels

Channel layout                           : L R C LFE Ls Rs

Sampling rate                            : 48.0 kHz

Frame rate                               : 31.250 FPS (1536 SPF)

Compression mode                         : Lossy

Delay relative to video                  : -5 ms

Stream size                              : 340 MiB (15%)

Title                                    : [WwW.MKVFlix.PW]

Language                                 : English

Service kind                             : Complete Main

Default                                  : Yes

Forced                                   : No





Discussion

Comments 0

Post Your Comment

Files in this torrent

FILENAMESIZE
DesiCope.txt285 B
Mkvflix.txt283 B
[WwW.MKVFlix.PW]Bad Boys For Life.2020.1080P.Web-Dl.H264.Ac3 DD 5.1[WwW.MKVFlix.PW].mkv2.2 GB

Alternative Torrents for 'Bad Boys For Life DD'.

TORRENT NAMEADDEDSIZESEEDSPEERSHEALTH
7/12/20201.6 GB00
6/22/20203.3 GB00
6/3/20202 GB00
5/29/20208.7 GB00
5/9/20202.7 GB00
5/8/20202.3 GB00
5/7/20206.6 GB00
5/4/20201.5 GB00
5/3/20204.2 GB00
5/2/20204.8 GB00
5/2/20204.2 GB00
5/2/20201.2 GB00
4/19/20203.3 GB00
3/30/20202.2 GB00