Bad Boys For Life 2020 WEB-DL 1080p W

Torrent Details

Bad Boys for Life 2020 WEB-DL 1080p W
Bad Boys for Life 2020 WEB-DL 1080p W

NAME
Bad Boys for Life 2020 WEB-DL 1080p W.torrent
CATEGORY
Movies
INFOHASH
d026ced473dec4e7083ea2af05b895d0fea6bf81
SIZE
8.6 GB in 1 file
ADDED
Uploaded on 31-03-2020 by our crawler pet called "Spidey".
SWARM
0 seeders & 0 peers
RATING
No votes yet.

Please login to vote for this torrent.


Description

Информация о фильме

Название: Плохие парни навсегда

Оригинальное название: Bad Boys for Life

Год выхода: 2020

Жанр: Боевик, Триллер, Комедия, Криминал

Режиссер: Адиль Эль Арби, Билал Фалла

В ролях: Уилл Смит, Мартин Лоуренс, Ванесса Энн Хадженс, Александр Людвиг, Чарльз Мелтон, Паола Нуньес, Кейт дель Кастильо, Ники Джем, Джо Пантольяно, Джейкоб Скип



О фильме:

Детективы Майк Лоури и Маркус Бёрнетт снова в деле! Правда, их отстраняют от всех операций, но разве отчаянных друзей когда-нибудь что-либо останавливало? Ведь на этот раз на Майка открывает охоту некто из его прошлой жизни. Так что парням придется отжечь по полной!







Страна: США, Мексика

Студия: Columbia Pictures, 2.0 Entertainment, Columbia Pictures Mexico, Don Simpson/Jerry Bruckheimer Films, Overbrook Entertainment

Продолжительность: 02:03:55

Перевод: Дублированный (iTunes)



Файл

Качество: WEB-DL 1080p | AMZN

Видео: AVC/H.264, 1920x1080, ~8666 Кbps, 23,976 fps

Звук:

Аудио 1: AC3, 6 ch, 384 Kbps - Русский (DUB)

Аудио 2: AC3, 2 ch, 192 Kbps - Украинский (DUB)

Аудио 3: E-AC3, 6 ch, 640 Kbps - Английский

Субтитры: Русские (Forced, Full), Украинские (Forced, Full), Английские (Full, SDH)



MediainfoОбщее

Уникальный идентификатор : 70347614209537675307702058813915211130 (0x34EC752A01F172B1403995E4E4A5257A)

Полное имя : Bad Boys for Life.2020.WEB-DL.1080p.W.mkv

Формат : Matroska

Версия формата : Version 4

Размер файла : 8,56 Гбайт

Продолжительность : 2 ч. 3 м.

Общий поток : 9885 Кбит/сек

Название фильма : Bad Boys for Life.2020.WEB-DL.1080p.W

Дата кодирования : UTC 2020-03-31 10:14:52

Программа кодирования : mkvmerge v23.0.0 ('The Bride Said No') 64-bit

Библиотека кодирования : libebml v1.3.6 + libmatroska v1.4.9



Видео

Идентификатор : 1

Формат : AVC

Формат/Информация : Advanced Video Codec

Профиль формата : [email protected]

Настройки формата : CABAC / 4 Ref Frames

Параметр CABAC формата : Да

Параметр RefFrames формата : 4 кадра

Идентификатор кодека : V_MPEG4/ISO/AVC

Продолжительность : 2 ч. 3 м.

Вид битрейта : Постоянный

Битрейт : 8666 Кбит/сек

Номинальный битрейт : 10000 Кбит/сек

Ширина : 1920 пикселей

Высота : 1080 пикселей

Соотношение сторон : 16:9

Режим частоты кадров : Постоянный

Частота кадров : 23,976 (24000/1001) кадра/сек

Цветовое пространство : YUV

Субдискретизация насыщенности : 4:2:0

Битовая глубина : 8 бит

Тип развёртки : Прогрессивная

Бит/(Пиксели*Кадры) : 0.174

Размер потока : 7,50 Гбайт (88%)

Язык : English

Default : Да

Forced : Нет

Цветовой диапазон : Limited

Основные цвета : BT.709

Характеристики трансфера : BT.709

Коэффициенты матрицы : BT.709



Аудио #1

Идентификатор : 2

Формат : AC-3

Формат/Информация : Audio Coding 3

Коммерческое название : Dolby Digital

Идентификатор кодека : A_AC3

Продолжительность : 2 ч. 3 м.

Вид битрейта : Постоянный

Битрейт : 384 Кбит/сек

Каналы : 6 каналов

ChannelLayout : L R C LFE Ls Rs

Частота : 48,0 КГц

Частота кадров : 31,250 кадров/сек (1536 SPF)

Метод сжатия : С потерями

Размер потока : 340 Мбайт (4%)

Заголовок : DUB ( iTunes)

Язык : Russian

ServiceKind : Complete Main

Default : Да

Forced : Нет



Аудио #2

Идентификатор : 3

Формат : AC-3

Формат/Информация : Audio Coding 3

Коммерческое название : Dolby Digital

Идентификатор кодека : A_AC3

Продолжительность : 2 ч. 3 м.

Вид битрейта : Постоянный

Битрейт : 192 Кбит/сек

Каналы : 2 канала

ChannelLayout : L R

Частота : 48,0 КГц

Частота кадров : 31,250 кадров/сек (1536 SPF)

Метод сжатия : С потерями

Размер потока : 170 Мбайт (2%)

Язык : Ukrainian

ServiceKind : Complete Main

Default : Нет

Forced : Нет



Аудио #3

Идентификатор : 4

Формат : E-AC-3

Формат/Информация : Enhanced AC-3

Коммерческое название : Dolby Digital Plus

Идентификатор кодека : A_EAC3

Продолжительность : 2 ч. 3 м.

Вид битрейта : Постоянный

Битрейт : 640 Кбит/сек

Каналы : 6 каналов

ChannelLayout : L R C LFE Ls Rs

Частота : 48,0 КГц

Частота кадров : 31,250 кадров/сек (1536 SPF)

Метод сжатия : С потерями

Задержка видео : 20 мс.

Размер потока : 567 Мбайт (6%)

Язык : English

ServiceKind : Complete Main

Default : Нет

Forced : Нет



Текст #1

Идентификатор : 5

Формат : UTF-8

Идентификатор кодека : S_TEXT/UTF8

Идентификатор кодека/Информация : UTF-8 Plain Text

Продолжительность : 2 ч. 0 м.

Битрейт : 4 бит/сек

ElementCount : 91

Размер потока : 4,27 Кбайт (0%)

Заголовок : Forced

Язык : Russian

Default : Да

Forced : Нет



Текст #2

Идентификатор : 6

Формат : UTF-8

Идентификатор кодека : S_TEXT/UTF8

Идентификатор кодека/Информация : UTF-8 Plain Text

Продолжительность : 2 ч. 2 м.

Битрейт : 91 бит/сек

ElementCount : 1794

Размер потока : 82,6 Кбайт (0%)

Заголовок : Full

Язык : Russian

Default : Нет

Forced : Нет



Текст #3

Идентификатор : 7

Формат : UTF-8

Идентификатор кодека : S_TEXT/UTF8

Идентификатор кодека/Информация : UTF-8 Plain Text

Продолжительность : 1 ч. 58 м.

Битрейт : 4 бит/сек

ElementCount : 79

Размер потока : 3,65 Кбайт (0%)

Заголовок : Forced

Язык : Ukrainian

Default : Нет

Forced : Нет



Текст #4

Идентификатор : 8

Формат : UTF-8

Идентификатор кодека : S_TEXT/UTF8

Идентификатор кодека/Информация : UTF-8 Plain Text

Продолжительность : 2 ч. 2 м.

Битрейт : 102 бит/сек

ElementCount : 1618

Размер потока : 92,0 Кбайт (0%)

Заголовок : Full

Язык : Ukrainian

Default : Нет

Forced : Нет



Текст #5

Идентификатор : 9

Формат : UTF-8

Идентификатор кодека : S_TEXT/UTF8

Идентификатор кодека/Информация : UTF-8 Plain Text

Продолжительность : 1 ч. 57 м.

Битрейт : 60 бит/сек

ElementCount : 1778

Размер потока : 51,9 Кбайт (0%)

Язык : English

Default : Нет

Forced : Нет



Текст #6

Идентификатор : 10

Формат : UTF-8

Идентификатор кодека : S_TEXT/UTF8

Идентификатор кодека/Информация : UTF-8 Plain Text

Продолжительность : 2 ч. 1 м.

Битрейт : 67 бит/сек

ElementCount : 2225

Размер потока : 59,6 Кбайт (0%)

Заголовок : SDH

Язык : English

Default : Нет

Forced : Нет



Меню

00:00:00.000 : en:Studio Logo

00:00:41.988 : en:Opening Credits

00:03:42.988 : en:Title Sequence

00:03:47.988 : en:Scene 4

00:04:45.988 : en:Scene 5

00:07:20.988 : en:Scene 6

00:09:36.988 : en:Scene 7

00:15:46.988 : en:Scene 8

00:18:50.988 : en:Scene 9

00:21:13.988 : en:Scene 10

00:28:57.988 : en:Scene 11

00:34:17.988 : en:Scene 12

00:40:45.988 : en:Scene 13

00:47:05.988 : en:Scene 14

00:52:50.988 : en:Scene 15

01:00:09.988 : en:Scene 16

01:06:29.988 : en:Scene 17

01:11:40.988 : en:Scene 18

01:15:10.988 : en:Scene 19

01:21:45.988 : en:Scene 20

01:27:16.988 : en:Scene 21

01:33:13.988 : en:Scene 22

01:36:34.988 : en:Scene 23

01:41:25.988 : en:Scene 24

01:47:13.988 : en:Scene 25

01:53:44.988 : en:Scene 26

01:57:01.988 : en:Title Sequence

01:57:09.988 : en:Scene 28

01:57:47.988 : en:End Credits

Скриншоты

Discussion

Comments 0

Post Your Comment

Files in this torrent

FILENAMESIZE
Bad Boys for Life.2020.WEB-DL.1080p.W.mkv8.6 GB

Alternative Torrents for 'Bad Boys for Life'.

TORRENT NAMEADDEDSIZESEEDSPEERSHEALTH
8/3/20201.4 GB14
7/28/20208.7 GB01
7/21/20201.9 GB00
7/19/20202.3 GB00
7/12/20202.8 GB00
7/12/20202.8 GB00
7/12/20201.6 GB00
6/30/20201.3 GB00
6/26/202020.8 GB00
6/22/20203.3 GB00
6/22/20209.9 GB00
6/18/20201.1 GB00
6/18/2020266 MB00
6/15/202047.4 GB00
6/4/20205.8 GB00