Bad Boys For Life 2020 WEB-DL 2160p HDR SeleZen

Torrent Details

Bad Boys For Life 2020 WEB-DL 2160p HDR<span style=color:#fc9c6d> seleZen</span>
Bad Boys For Life 2020 WEB-DL 2160p HDR<span style=color:#fc9c6d> seleZen</span>

NAME
Bad Boys For Life 2020 WEB-DL 2160p HDR seleZen.torrent
CATEGORY
Movies
INFOHASH
5a561a425b16487ec5b420a5c19af2e59af0b996
SIZE
20 GB in 1 file
ADDED
Uploaded on 31-03-2020 by our crawler pet called "Spidey".
SWARM
0 seeders & 0 peers
RATING
No votes yet.

Please login to vote for this torrent.


Description

Информация о фильме

Название: Плохие парни навсегда

Оригинальное название: Bad Boys for Life

Год выхода: 2020

Жанр: Боевик, триллер, комедия, криминал

Режиссер: Адиль Эль Арби, Билал Фалла

В ролях: Уилл Смит, Мартин Лоуренс, Александр Людвиг, Ванесса Энн Хадженс, Майкл Бэй, Джо Пантолиано, Паола Нуньес, Чарльз Мелтон, Кейт дель Кастильо, Ники Джем, Джейкоб Скипио







О фильме: Детективы Майк Лоури и Маркус Бёрнетт снова в деле! Правда, их отстраняют от всех операций, но разве отчаянных друзей когда-нибудь что-либо останавливало? Ведь на этот раз на Майка открывает охоту некто из его прошлой жизни. Так что парням придется отжечь по полной!



Страна: США, Мексика

Студия: Columbia Pictures, 2.0 Entertainment, Columbia Pictures Mexico

Продолжительность: 02:03:56

Перевод: Дублированный | iTunes



Качество: WEB-DL 2160p

Видео: 3840x2160 at 23.976 fps, MPEG-H HEVC HDR Video, 21900 kbps avg

Аудио #01: 48 kHz, AC3, 5.1, 384 Kbps | iTunes | RUS |

Аудио #02: 48 kHz, AC3, 2.0, 192 Kbps | iTunes | UKR |

Аудио #03: 48 kHz, E-AC3, 5.1, 640 Kbps | Оригинал | ENG |

Субтитры: Русские (Forced, Full), украинские (Forced, Full), английские







MIGeneral

Unique ID : 186305822707440168415783705789023992494 (0x8C29323F2ED821A41D87D6AEAF4D3AAE)

Complete name : E:Video111Bad.Boys.For.Life.2020.WEB-DL.2160p.HDR.seleZen.mkv

Format : Matroska

Format version : Version 4

File size : 20.0 GiB

Duration : 2 h 3 min

Overall bit rate : 23.1 Mb/s

Movie name : Bad Boys for Life 2020 from селезень

Encoded date : UTC 2020-03-31 16:45:17

Writing application : mkvmerge v40.0.0 ('Old Town Road + Pony') 64-bit

Writing library : libebml v1.3.9 + libmatroska v1.5.2



Video

ID : 1

Format : HEVC

Format/Info : High Efficiency Video Coding

Format profile : Main [email protected]@High

HDR format : SMPTE ST 2086, HDR10 compatible

Codec ID : V_MPEGH/ISO/HEVC

Duration : 2 h 3 min

Bit rate : 21.9 Mb/s

Width : 3 840 pixels

Height : 2 160 pixels

Display aspect ratio : 16:9

Frame rate mode : Constant

Frame rate : 23.976 (24000/1001) FPS

Color space : YUV

Chroma subsampling : 4:2:0

Bit depth : 10 bits

Bits/(Pixel*Frame) : 0.110

Stream size : 19.0 GiB (95%)

Language : English

Default : Yes

Forced : No

Color range : Limited

Color primaries : BT.2020

Transfer characteristics : PQ

Matrix coefficients : BT.2020 non-constant

Mastering display color pri : Display P3

Mastering display luminance : min: 0.0050 cd/m2, max: 4000 cd/m2

Maximum Content Light Level : 4004 cd/m2

Maximum Frame-Average Light : 695 cd/m2



Audio #1

ID : 2

Format : AC-3

Format/Info : Audio Coding 3

Commercial name : Dolby Digital

Codec ID : A_AC3

Duration : 2 h 3 min

Bit rate mode : Constant

Bit rate : 384 kb/s

Channel(s) : 6 channels

Channel layout : L R C LFE Ls Rs

Sampling rate : 48.0 kHz

Frame rate : 31.250 FPS (1536 SPF)

Compression mode : Lossy

Stream size : 340 MiB (2%)

Title : iTunes

Language : Russian

Service kind : Complete Main

Default : Yes

Forced : Yes



Audio #2

ID : 3

Format : AC-3

Format/Info : Audio Coding 3

Commercial name : Dolby Digital

Codec ID : A_AC3

Duration : 2 h 3 min

Bit rate mode : Constant

Bit rate : 192 kb/s

Channel(s) : 2 channels

Channel layout : L R

Sampling rate : 48.0 kHz

Frame rate : 31.250 FPS (1536 SPF)

Compression mode : Lossy

Stream size : 170 MiB (1%)

Title : iTunes

Language : Ukrainian

Service kind : Complete Main

Default : No

Forced : No



Audio #3

ID : 4

Format : E-AC-3

Format/Info : Enhanced AC-3

Commercial name : Dolby Digital Plus

Codec ID : A_EAC3

Duration : 2 h 3 min

Bit rate mode : Constant

Bit rate : 640 kb/s

Channel(s) : 6 channels

Channel layout : L R C LFE Ls Rs

Sampling rate : 48.0 kHz

Frame rate : 31.250 FPS (1536 SPF)

Compression mode : Lossy

Stream size : 567 MiB (3%)

Title : Original

Language : English

Service kind : Complete Main

Default : No

Forced : No



Text #1

ID : 5

Format : UTF-8

Codec ID : S_TEXT/UTF8

Codec ID/Info : UTF-8 Plain Text

Duration : 2 h 0 min

Bit rate : 4 b/s

Count of elements : 91

Stream size : 4.27 KiB (0%)

Title : Forced

Language : Russian

Default : Yes

Forced : Yes



Text #2

ID : 6

Format : UTF-8

Codec ID : S_TEXT/UTF8

Codec ID/Info : UTF-8 Plain Text

Duration : 2 h 2 min

Bit rate : 91 b/s

Count of elements : 1794

Stream size : 82.6 KiB (0%)

Title : Full

Language : Russian

Default : No

Forced : No



Text #3

ID : 7

Format : UTF-8

Codec ID : S_TEXT/UTF8

Codec ID/Info : UTF-8 Plain Text

Duration : 1 h 58 min

Bit rate : 4 b/s

Count of elements : 79

Stream size : 3.65 KiB (0%)

Title : Forced

Language : Ukrainian

Default : No

Forced : No



Text #4

ID : 8

Format : UTF-8

Codec ID : S_TEXT/UTF8

Codec ID/Info : UTF-8 Plain Text

Duration : 2 h 2 min

Bit rate : 102 b/s

Count of elements : 1618

Stream size : 92.0 KiB (0%)

Title : Full

Language : Ukrainian

Default : No

Forced : No



Text #5

ID : 9

Format : UTF-8

Codec ID : S_TEXT/UTF8

Codec ID/Info : UTF-8 Plain Text

Duration : 1 h 45 min

Bit rate : 2 b/s

Count of elements : 77

Stream size : 2.22 KiB (0%)

Title : Forced

Language : English

Default : No

Forced : No



Text #6

ID : 10

Format : UTF-8

Codec ID : S_TEXT/UTF8

Codec ID/Info : UTF-8 Plain Text

Duration : 1 h 57 min

Bit rate : 59 b/s

Count of elements : 1547

Stream size : 50.9 KiB (0%)

Title : Full

Language : English

Default : No

Forced : No



Text #7

ID : 11

Format : UTF-8

Codec ID : S_TEXT/UTF8

Codec ID/Info : UTF-8 Plain Text

Duration : 2 h 1 min

Bit rate : 80 b/s

Count of elements : 2225

Stream size : 71.4 KiB (0%)

Title : SDH

Language : English

Default : No

Forced : No



Menu

00:00:00.000 : en:1

00:07:33.173 : en:2

00:14:56.616 : en:3

00:23:43.225 : en:4

00:31:05.583 : en:5

00:38:43.039 : en:6

00:45:26.317 : en:7

00:53:27.297 : en:8

01:00:22.003 : en:9

01:07:29.220 : en:10

01:12:55.129 : en:11

01:22:12.310 : en:12

01:29:49.057 : en:13

01:36:47.767 : en:14

01:42:08.546 : en:15

01:53:55.878 : en:16



Релиз от:



Discussion

Comments 0

Post Your Comment

Files in this torrent

FILENAMESIZE
Bad.Boys.For.Life.2020.WEB-DL.2160p.HDR.seleZen.mkv20 GB

Alternative Torrents for 'Bad Boys For Life HDR'.

TORRENT NAMEADDEDSIZESEEDSPEERSHEALTH
6/26/202020.8 GB00
6/15/202047.4 GB00
5/29/20208.7 GB00
5/16/202014.3 GB00
5/7/20204.2 GB00
5/7/202021.3 GB00
5/2/202019.8 GB00
5/1/202020.8 GB00
5/1/20205.2 GB00
4/29/202013.7 GB00
4/24/202012.5 GB00
4/21/202046.9 GB00
4/20/20209.3 GB00
4/17/202019.5 GB00
4/16/20203.9 GB00