Bad Boys For Life 2020 AMZN WEBRip 1080p

Torrent Details

Bad Boys for Life 2020 AMZN WEBRip 1080p
Bad Boys for Life 2020 AMZN WEBRip 1080p

NAME
Bad Boys for Life 2020 AMZN WEBRip 1080p.torrent
CATEGORY
Movies
INFOHASH
9b68dbeca4768991151069b7f2eb2233d3d40c61
SIZE
16.7 GB in 1 file
ADDED
Uploaded on 31-03-2020 by our crawler pet called "Spidey".
SWARM
0 seeders & 0 peers
RATING
No votes yet.

Please login to vote for this torrent.


Description

Информация о фильме

Название: Плохие парни навсегда

Оригинальное название: Bad Boys for Life

Год выхода: 2020

Жанр: Боевик, триллер, комедия, криминал

Режиссер: Адиль Эль Арби, Билал Фалла

В ролях: Уилл Смит, Мартин Лоуренс, Ванесса Энн Хадженс, Александр Людвиг, Чарльз Мелтон, Паола Нуньес, Кейт дель Кастильо, Ники Джем, Джо Пантольяно, Джейкоб Скип



О фильме:

Детективы Майк Лоури и Маркус Бёрнетт снова в деле! Правда, их отстраняют от всех операций, но разве отчаянных друзей когда-нибудь что-либо останавливало? Ведь на этот раз на Майка открывает охоту некто из его прошлой жизни. Так что парням придется отжечь по полной!







Страна: США, Мексика

Студия: Columbia Pictures, 2.0 Entertainment, Columbia Pictures Mexico, Don Simpson/Jerry Bruckheimer Films, Overbrook Entertainment

Продолжительность: 02:03:57

Перевод: Дублированный | iTunes



Файл

Кодек: x.264

Качество: WEBRip 1080p | Bad.Boys.For.Life.2020.1080p.AMZN.WEB.DDP5.1.x264-AJP69

Видео: MPEG-4 AVC, 18.1 Mбит/с, 1920x800, 23.976 кадр/с

Аудио #1: Русский (АС3, 6 ch, 384 Кбит/с, 48.0 KHz) Профессиональный (дублированный) iTunes

Аудио #2: Украинский (АС3, 2 ch, 192 Кбит/с, 48.0 KHz) Профессиональный (дублированный) iTunes

Аудио #3: Английский (E-АС3, 6 ch, 640 Кбит/с, 48.0 KHz)

Субтитры: Русские (Forced, Full), Украинские (Forced, Full), Английские (Full, SDH)

MediaInfo Источник: Bad.Boys.For.Life.2020.1080p.AMZN.WEB.DDP5.1.x264-AJP69

General

Unique ID : 244315535390984502698525317556138168768 (0xB7CD75E687877902AA5A18A7B44C51C0)

Complete name : Bad.Boys.for.Life.2020.AMZN.WEBRip.1080p.mkv

Format : Matroska

Format version : Version 4

File size : 16.7 GiB

Duration : 2 h 3 min

Overall bit rate : 19.3 Mb/s

Encoded date : UTC 2020-03-31 18:27:43

Writing application : mkvmerge v7.1.0 ('Good Love') 64bit built on Jul 27 2014 13:06:55

Writing library : libebml v1.3.0 + libmatroska v1.4.1



Video

ID : 1

Format : AVC

Format/Info : Advanced Video Codec

Format profile : [email protected]

Format settings : CABAC / 5 Ref Frames

Format settings, CABAC : Yes

Format settings, Reference fra : 5 frames

Codec ID : V_MPEG4/ISO/AVC

Duration : 2 h 3 min

Bit rate : 18.1 Mb/s

Width : 1 920 pixels

Height : 800 pixels

Display aspect ratio : 2.40:1

Frame rate mode : Constant

Frame rate : 23.976 (24000/1001) FPS

Color space : YUV

Chroma subsampling : 4:2:0

Bit depth : 8 bits

Scan type : Progressive

Bits/(Pixel*Frame) : 0.491

Stream size : 15.7 GiB (94%)

Writing library : x264 core 158 r2984 3759fcb

Encoding settings : cabac=1 / ref=5 / deblock=1:-3:-3 / analyse=0x3:0x133 / me=umh / subme=10 / psy=1 / psy_rd=1.00:0.00 / mixed_ref=1 / me_range=48 / chroma_me=1 / trellis=2 / 8x8dct=1 / cqm=0 / deadzone=21,11 / fast_pskip=0 / chroma_qp_offset=-2 / threads=25 / lookahead_threads=4 / sliced_threads=0 / nr=0 / decimate=0 / interlaced=0 / bluray_compat=0 / constrained_intra=0 / bframes=8 / b_pyramid=2 / b_adapt=2 / b_bias=0 / direct=3 / weightb=1 / open_gop=0 / weightp=2 / keyint=250 / keyint_min=23 / scenecut=40 / intra_refresh=0 / rc=crf / mbtree=0 / crf=16.0 / qcomp=0.60 / qpmin=0 / qpmax=69 / qpstep=4 / ip_ratio=1.30 / pb_ratio=1.20 / aq=3:0.80

Language : English

Default : Yes

Forced : No



Audio #1

ID : 2

Format : AC-3

Format/Info : Audio Coding 3

Commercial name : Dolby Digital

Codec ID : A_AC3

Duration : 2 h 3 min

Bit rate mode : Constant

Bit rate : 384 kb/s

Channel(s) : 6 channels

Channel layout : L R C LFE Ls Rs

Sampling rate : 48.0 kHz

Frame rate : 31.250 FPS (1536 SPF)

Compression mode : Lossy

Stream size : 340 MiB (2%)

Title : iTunes

Language : Russian

Service kind : Complete Main

Default : Yes

Forced : No



Audio #2

ID : 3

Format : AC-3

Format/Info : Audio Coding 3

Commercial name : Dolby Digital

Codec ID : A_AC3

Duration : 2 h 3 min

Bit rate mode : Constant

Bit rate : 192 kb/s

Channel(s) : 2 channels

Channel layout : L R

Sampling rate : 48.0 kHz

Frame rate : 31.250 FPS (1536 SPF)

Compression mode : Lossy

Stream size : 170 MiB (1%)

Title : iTunes

Language : Ukrainian

Service kind : Complete Main

Default : No

Forced : No



Audio #3

ID : 4

Format : E-AC-3

Format/Info : Enhanced AC-3

Commercial name : Dolby Digital Plus

Codec ID : A_EAC3

Duration : 2 h 3 min

Bit rate mode : Constant

Bit rate : 640 kb/s

Channel(s) : 6 channels

Channel layout : L R C LFE Ls Rs

Sampling rate : 48.0 kHz

Frame rate : 31.250 FPS (1536 SPF)

Compression mode : Lossy

Stream size : 567 MiB (3%)

Language : English

Service kind : Complete Main

Default : No

Forced : No



Text #1

ID : 5

Format : UTF-8

Codec ID : S_TEXT/UTF8

Codec ID/Info : UTF-8 Plain Text

Duration : 2 h 0 min

Bit rate : 4 b/s

Count of elements : 91

Stream size : 4.27 KiB (0%)

Title : Forced

Language : Russian

Default : Yes

Forced : No



Text #2

ID : 6

Format : UTF-8

Codec ID : S_TEXT/UTF8

Codec ID/Info : UTF-8 Plain Text

Duration : 2 h 2 min

Bit rate : 91 b/s

Count of elements : 1794

Stream size : 82.6 KiB (0%)

Title : Full

Language : Russian

Default : No

Forced : No



Text #3

ID : 7

Format : UTF-8

Codec ID : S_TEXT/UTF8

Codec ID/Info : UTF-8 Plain Text

Duration : 1 h 58 min

Bit rate : 4 b/s

Count of elements : 79

Stream size : 3.65 KiB (0%)

Title : Forced

Language : Ukrainian

Default : No

Forced : No



Text #4

ID : 8

Format : UTF-8

Codec ID : S_TEXT/UTF8

Codec ID/Info : UTF-8 Plain Text

Duration : 2 h 2 min

Bit rate : 102 b/s

Count of elements : 1618

Stream size : 92.0 KiB (0%)

Title : Full

Language : Ukrainian

Default : No

Forced : No



Text #5

ID : 9

Format : UTF-8

Codec ID : S_TEXT/UTF8

Codec ID/Info : UTF-8 Plain Text

Duration : 1 h 45 min

Bit rate : 2 b/s

Count of elements : 77

Stream size : 2.22 KiB (0%)

Title : Forced

Language : English

Default : No

Forced : No



Text #6

ID : 10

Format : UTF-8

Codec ID : S_TEXT/UTF8

Codec ID/Info : UTF-8 Plain Text

Duration : 1 h 57 min

Bit rate : 59 b/s

Count of elements : 1547

Stream size : 50.9 KiB (0%)

Language : English

Default : No

Forced : No



Text #7

ID : 11

Format : UTF-8

Codec ID : S_TEXT/UTF8

Codec ID/Info : UTF-8 Plain Text

Duration : 2 h 1 min

Bit rate : 80 b/s

Count of elements : 2225

Stream size : 71.4 KiB (0%)

Title : SDH

Language : English

Default : No

Forced : No



Menu

00:00:00.000 : en:1

00:07:33.203 : en:2

00:14:56.646 : en:3

00:23:43.255 : en:4

00:31:05.613 : en:5

00:38:43.069 : en:6

00:45:26.347 : en:7

00:53:27.327 : en:8

01:00:22.033 : en:9

01:07:29.250 : en:10

01:12:55.159 : en:11

01:22:12.340 : en:12

01:29:49.087 : en:13

01:36:47.797 : en:14

01:42:08.576 : en:15

01:53:55.908 : en:16

Скриншоты

Discussion

Comments 0

Post Your Comment

Files in this torrent

FILENAMESIZE
Bad.Boys.for.Life.2020.AMZN.WEBRip.1080p.mkv16.7 GB

Alternative Torrents for 'Bad Boys for Life'.

TORRENT NAMEADDEDSIZESEEDSPEERSHEALTH
8/3/20201.4 GB14
7/28/20208.7 GB01
7/21/20201.9 GB00
7/19/20202.3 GB00
7/12/20202.8 GB00
7/12/20202.8 GB00
7/12/20201.6 GB00
6/30/20201.3 GB00
6/26/202020.8 GB00
6/22/20203.3 GB00
6/22/20209.9 GB00
6/18/20201.1 GB00
6/18/2020266 MB00
6/15/202047.4 GB00
6/4/20205.8 GB00