1917 (2019) BDRip-1080p MegaPeer (qqss44)

Torrent Details


1917 (2019) BDRip-1080p MegaPeer (qqss44)

NAME
1917 (2019) BDRip-1080p MegaPeer (qqss44).torrent
CATEGORY
Movies
INFOHASH
0937ac60426ee946c6e450b2dac61b6f76ba6627
SIZE
7.5 GB in 1 file
ADDED
Uploaded on 03-04-2020 by our crawler pet called "Spidey".
SWARM
0 seeders & 0 peers
RATING
No votes yet.

Please login to vote for this torrent.


Description

Анонсы 1080p от qqss44



Информация о фильме

Название: 1917

Оригинальное название: 1917

Год выхода: 2019

Жанр: военный, боевик, драма, история

Режиссер: Сэм Мендес

В ролях: Эндрю Скотт, Бенедикт Камбербэтч, Колин Фёрт, Ричард Мэдден, Дин-Чарльз Чепмен, Джордж МакКэй, Марк Стронг, Дэниэл Мейс, Эдриан Скарборо, Клэр Дюбюрк и другие.



О фильме:

6 апреля 1917 года, разгар Первой мировой войны, Западный фронт на севере Франции. Британский генерал поручает капралу Блэйку и его сослуживцу смертельно опасную миссию. Они должны пересечь вражескую территорию, вроде бы оставленную германскими войсками, и доставить приказ об отмене наступления во 2-й батальон Девонширского полка, иначе 1600 солдат попадут в ловушку противника, в том числе и брат Блэйка.







Страна: США, Великобритания, Индия, Испания, Канада

Студия: Amblin Partners, DreamWorks, Neal Street Productions

Продолжительность: 01:58:58

Перевод: Дублированный | iTunes



Файл

Формат: MKV, BDRip 1080p

Видео: MPEG-4 AVC, 8688 Кбит/с, 1920x802

Aудио#1: [RUS] AC3 | 48 KHz | 5.1 (Front: L С R Side: L R) + LFE | ~384 kbps

Субтитры: русские форсированные и полные (отключаемые, srt)

Релиз от:

.



Скриншоты



МИ



Общее

Уникальный идентификатор : 196952899841861532213739368698612819042 (0x942BBFADAEB62133A9643CF24E902462)

Полное имя : H:1917.(2019).BDRip-1080p.MegaPeer.(qqss44).mkv

Формат : Matroska

Версия формата : Version 2

Размер файла : 7,54 Гбайт

Продолжительность : 1 ч. 58 м.

Общий поток : 9073 Кбит/сек

Название фильма : 1917.(2019).BDRip-1080p.MegaPeer.(qqss44)

Дата кодирования : UTC 2020-04-03 11:31:27

Программа кодирования : mkvmerge v7.8.0 ('River Man') 32bit built on Apr 3 2015 12:11:22

Библиотека кодирования : libebml v1.3.1 + libmatroska v1.4.2



Видео

Идентификатор : 1

Формат : AVC

Формат/Информация : Advanced Video Codec

Профиль формата : [email protected]

Параметр CABAC формата : Да

Параметр ReFrames формата : 5 кадров

Идентификатор кодека : V_MPEG4/ISO/AVC

Продолжительность : 1 ч. 58 м.

Битрейт : 8688 Кбит/сек

Ширина : 1920 пикселей

Высота : 802 пикселя

Соотношение сторон : 2,40:1

Режим частоты кадров : Постоянный

Частота кадров : 23,976 (24000/1001) кадра/сек

Цветовое пространство : YUV

Субдискретизация насыщенности : 4:2:0

Битовая глубина : 8 бит

Тип развёртки : Прогрессивная

Бит/(Пиксели*Кадры) : 0.235

Размер потока : 7,07 Гбайт (94%)

Библиотека кодирования : x264 core 152 r2851 ba24899

Настройки программы : cabac=1 / ref=5 / deblock=1:-1:-1 / analyse=0x3:0x113 / me=umh / subme=11 / psy=1 / psy_rd=1.00:0.00 / mixed_ref=1 / me_range=32 / chroma_me=1 / trellis=2 / 8x8dct=1 / cqm=0 / deadzone=21,11 / fast_pskip=0 / chroma_qp_offset=-2 / threads=12 / lookahead_threads=2 / sliced_threads=0 / nr=0 / decimate=0 / interlaced=0 / bluray_compat=0 / constrained_intra=0 / bframes=9 / b_pyramid=2 / b_adapt=2 / b_bias=0 / direct=3 / weightb=1 / open_gop=0 / weightp=2 / keyint=250 / keyint_min=23 / scenecut=40 / intra_refresh=0 / rc_lookahead=40 / rc=2pass / mbtree=0 / bitrate=8688 / ratetol=1.0 / qcomp=0.72 / qpmin=0 / qpmax=69 / qpstep=4 / cplxblur=20.0 / qblur=0.5 / vbv_maxrate=50000 / vbv_bufsize=62500 / nal_hrd=none / filler=0 / ip_ratio=1.40 / pb_ratio=1.30 / aq=3:0.90

Язык : English

Default : Да

Forced : Нет



Аудио

Идентификатор : 2

Формат : AC-3

Формат/Информация : Audio Coding 3

Расширение режима : CM (complete main)

Параметр Endianness формата : Big

Идентификатор кодека : A_AC3

Продолжительность : 1 ч. 58 м.

Вид битрейта : Постоянный

Битрейт : 384 Кбит/сек

Каналы : 6 каналов

Расположение каналов : Front: L C R, Side: L R, LFE

Частота : 48,0 КГц

Частота кадров : 31,250 кадров/сек (1536 spf)

Метод сжатия : С потерями

Размер потока : 327 Мбайт (4%)

Язык : Russian

Default : Да

Forced : Нет



Текст #1

Идентификатор : 3

Формат : UTF-8

Идентификатор кодека : S_TEXT/UTF8

Идентификатор кодека/Информация : UTF-8 Plain Text

Заголовок : FORCED

Язык : Russian

Default : Да

Forced : Нет



Текст #2

Идентификатор : 4

Формат : UTF-8

Идентификатор кодека : S_TEXT/UTF8

Идентификатор кодека/Информация : UTF-8 Plain Text

Заголовок : FULL

Язык : Russian

Default : Нет

Forced : Нет



Меню

00:00:00.000 : en:Chapter 01

00:04:59.424 : en:Chapter 02

00:08:19.374 : en:Chapter 03

00:13:26.639 : en:Chapter 04

00:16:38.789 : en:Chapter 05

00:23:32.494 : en:Chapter 06

00:30:28.660 : en:Chapter 07

00:35:34.549 : en:Chapter 08

00:42:25.376 : en:Chapter 09

00:51:34.091 : en:Chapter 10

00:56:36.310 : en:Chapter 11

01:02:29.079 : en:Chapter 12

01:06:33.573 : en:Chapter 13

01:12:04.320 : en:Chapter 14

01:19:45.197 : en:Chapter 15

01:28:47.822 : en:Chapter 16

01:33:43.451 : en:Chapter 17

01:38:11.594 : en:Chapter 18

01:41:43.681 : en:Chapter 19

01:49:46.580 : en:Chapter 20

Discussion

Comments 0

Post Your Comment

Files in this torrent

FILENAMESIZE
1917.(2019).BDRip-1080p.MegaPeer.(qqss44).mkv7.5 GB

Alternative Torrents for 'qqss'.

There are no alternative torrents found.