The Invisible Man 2020 WEB-DLRip

Torrent Details

The Invisible Man 2020 WEB-DLRip
The Invisible Man 2020 WEB-DLRip

NAME
The Invisible Man 2020 WEB-DLRip.torrent
CATEGORY
Movies
INFOHASH
dfcc5927ab902388d91ff54f49d527316181196c
SIZE
748 MB in 2 files
ADDED
Uploaded on 05-04-2020 by our crawler pet called "Spidey".
SWARM
0 seeders & 0 peers
RATING
No votes yet.

Please login to vote for this torrent.


Description

Информация о фильме

Название: Человек-невидимка

Оригинальное название: The Invisible Man

Год выпуска: 2020

Жанр: Ужасы, фантастика, триллер, детектив

Режиссер: Ли Уоннелл

В ролях: Элизабет Мосс, Оливер Джексон-Коэн, Харриет Дайер, Элдис Ходж, Сторм Рейд, Майкл Дорман, Бенедикт Харди, Рени Лим, Брайан Миган, Ник Кичи



О фильме:

Под покровом ночи Сесилия бежит из высокотехнологичного дома своего бойфренда Адриана, усыпив его снотворным и отключив системы наблюдения и сигнализацию. Теперь девушка живёт у друга, боится выходить на улицу и страдает от мании преследования, когда узнает, что её бывший мучитель покончил с собой. Адриан, лидер рынка оптических разработок, оставил Сесилии большое наследство, и, наконец-то, жизнь девушки должна наладиться. Но вскоре она вновь начинает чувствовать тревогу, как будто Адриан незаметно к ней подкрадывается — ведь невозможно спрятаться от преследователя, которого не видишь.







Страна: Австралия, США, Канада, Великобритания

Студия: Goalpost Pictures, Blumhouse Productions, Dark Universe

Продолжительность: 02:04:21

Перевод: Дублированный | iTunes



Файл

Формат: AVI

Качество: WEB-DLRip

Видео: 688x288 (2.39:1), 23.976 fps, XviD build 73 ~703 kbps avg, 0.15 bit/pixel

Аудио: 48 kHz, MPEG Layer 3, 2 ch, ~128.00 kbps avg

Субтитры: Русские форсированные (отдельно)



MediaInfo:Общее

Полное имя : C:The.Invisible.Man.2020.WEB-DLRip.740.mb.avi

Формат : AVI

Формат/Информация : Audio Video Interleave

Размер файла : 748 Мбайт

Продолжительность : 2 ч. 4 м.

Общий поток : 841 Кбит/сек

Программа кодирования : VirtualDubMod 1.5.10.3 | (build 2550/release)

Библиотека кодирования : VirtualDubMod build 2550/release



Видео

Идентификатор : 0

Формат : MPEG-4 Visual

Профиль формата : Advanced [email protected]

Параметр BVOP формата : 1

Параметр QPel формата : Нет

Параметр GMC формата : Без точки перехода

Параметр матрицы формата : Выборочная

Идентификатор кодека : XVID

Идентификатор кодека/Подсказка : XviD

Продолжительность : 2 ч. 4 м.

Битрейт : 704 Кбит/сек

Ширина : 688 пикселей

Высота : 288 пикселей

Соотношение сторон : 2,40:1

Частота кадров : 23,976 кадра/сек

Цветовое пространство : YUV

Субдискретизация насыщенности : 4:2:0

Битовая глубина : 8 бит

Тип развёртки : Прогрессивная

Метод сжатия : С потерями

Бит/(Пиксели*Кадры) : 0.148

Размер потока : 626 Мбайт (84%)

Библиотека кодирования : XviD 73



Аудио

Идентификатор : 1

Формат : MPEG Audio

Версия формата : Version 1

Профиль формата : Layer 3

Идентификатор кодека : 55

Идентификатор кодека/Подсказка : MP3

Продолжительность : 2 ч. 4 м.

Вид битрейта : Постоянный

Битрейт : 128 Кбит/сек

Каналы : 2 канала

Частота : 48,0 КГц

Метод сжатия : С потерями

Размер потока : 114 Мбайт (15%)

Выравнивание : Соединение по промежуткам

Продолжительность промежутка : 42 мс. (1,00 видеокадр)

Время предзагрузки промежутка : 504 мс.

Библиотека кодирования : LAME3.99r

Настройки программы : -m s -V 4 -q 2 -lowpass 17 -b 128







Скриншоты

Discussion

Comments 0

Post Your Comment

Files in this torrent

FILENAMESIZE
The.Invisible.Man.2020.WEB-DLRip.740.mb.avi748.2 MB
The.Invisible.Man.2020.WEB-DLRip.740.mb.srt778 B

Alternative Torrents for 'Invisible Man DLRip'.

TORRENT NAMEADDEDSIZESEEDSPEERSHEALTH
4/5/2020748 MB00
3/28/20201.5 GB00
3/27/20202.2 GB00
3/24/20202.1 GB00
3/23/20201.5 GB00
3/23/2020747 MB00
3/22/20201.5 GB00
3/22/20201.5 GB00