The Legend Of Korra (2012) S01-04 (1080p BDrip X265 10bit EAC3 5.1 - Ainz)[TAoE]

Torrent Details

The Legend of Korra (2012) S01-04 (1080p BDrip x265 10bit EAC3 5.1 - Ainz)<span style=color:#fc9c6d>[TAoE]</span>

NAME
The Legend of Korra (2012) S01-04 (1080p BDrip x265 10bit EAC3 5.1 - Ainz)[TAoE].torrent
CATEGORY
Television
INFOHASH
0687694c2c156ccea31f71936fb01d4442bee7e0
SIZE
19.7 GB in 52 files
ADDED
Uploaded on 07-04-2020 by our crawler pet called "Spidey".
SWARM
16 seeders & 16 peers
RATING
No votes yet.

Please login to vote for this torrent.


Description









The Legend Of Korra (2012) IMDB



































Synopsis

Avatar Korra fights to keep Republic City safe from the evil forces of both the physical and spiritual worlds.





Encoder Note



Season 02 of the legend of Korra was only released in interlaced. It had to be deinterlaced for the encoding process.







Media Information



General

Unique ID                                : 75845600884247825880410115800424652867 (0x390F54D5EDE492F6C10754AF19762043)

Complete name                            : The Legend of Korra (2012) S01E01 Welcome to Republic City (1080p BDrip x265 10bit EAC3 5.1 - Ainz)[TAoE].mkv

Format                                   : Matroska

Format version                           : Version 4 / Version 2

File size                                : 429 MiB

Duration                                 : 24 min 4 s

Overall bit rate                         : 2 490 kb/s

Writing application                      : Lavf58.39.101

Writing library                          : Lavf58.39.101

ErrorDetectionType                       : Per level 1



Video

ID                                       : 1

Format                                   : HEVC

Format/Info                              : High Efficiency Video Coding

Format profile                           : Main [email protected]@Main

Codec ID                                 : V_MPEGH/ISO/HEVC

Bit rate                                 : 1 992 kb/s

Width                                    : 1 920 pixels

Height                                   : 1 080 pixels

Display aspect ratio                     : 16:9

Frame rate mode                          : Variable

Original frame rate                      : 23.976 FPS

Color space                              : YUV

Chroma subsampling                       : 4:2:0

Bit depth                                : 10 bits

Writing library                          : x265 3.3+2-dd2464df2f40:[Linux][GCC 8.3.0][64 bit] 10bit

Encoding settings                        : cpuid=1111039 / frame-threads=3 / numa-pools=8 / wpp / no-pmode / no-pme / no-psnr / no-ssim / log-level=2 / input-csp=1 / input-res=1920x1080 / interlace=0 / total-frames=0 / level-idc=0 / high-tier=1 / uhd-bd=0 / ref=4 / no-allow-non-conformance / no-repeat-headers / annexb / no-aud / no-hrd / info / hash=0 / no-temporal-layers / open-gop / min-keyint=23 / keyint=250 / gop-lookahead=0 / bframes=8 / b-adapt=2 / b-pyramid / bframe-bias=0 / rc-lookahead=80 / lookahead-slices=4 / scenecut=40 / hist-scenecut=0 / radl=0 / no-splice / no-intra-refresh / ctu=64 / min-cu-size=8 / rect / no-amp / max-tu-size=32 / tu-inter-depth=1 / tu-intra-depth=1 / limit-tu=0 / rdoq-level=2 / dynamic-rd=0.00 / no-ssim-rd / signhide / no-tskip / nr-intra=0 / nr-inter=0 / no-constrained-intra / no-strong-intra-smoothing / max-merge=3 / limit-refs=3 / limit-modes / me=3 / subme=5 / merange=57 / temporal-mvp / no-frame-dup / no-hme / weightp / no-weightb / no-analyze-src-pics / deblock=0:0 / sao / no-sao-non-deblock / rd=4 / selective-sao=4 / no-early-skip / rskip / no-fast-intra / no-tskip-fast / no-cu-lossless / no-b-intra / no-splitrd-skip / rdpenalty=0 / psy-rd=2.00 / psy-rdoq=1.00 / no-rd-refine / no-lossless / cbqpoffs=0 / crqpoffs=0 / rc=crf / crf=19.0 / qcomp=0.60 / qpstep=4 / stats-write=0 / stats-read=0 / ipratio=1.40 / pbratio=1.30 / aq-mode=4 / aq-strength=1.00 / cutree / zone-count=0 / no-strict-cbr / qg-size=32 / no-rc-grain / qpmax=69 / qpmin=0 / no-const-vbv / sar=1 / overscan=0 / videoformat=5 / range=0 / colorprim=2 / transfer=2 / colormatrix=2 / chromaloc=0 / display-window=0 / cll=0,0 / min-luma=0 / max-luma=1023 / log2-max-poc-lsb=8 / vui-timing-info / vui-hrd-info / slices=1 / no-opt-qp-pps / no-opt-ref-list-length-pps / no-multi-pass-opt-rps / scenecut-bias=0.05 / hist-threshold=0.01 / no-opt-cu-delta-qp / no-aq-motion / no-hdr10 / no-hdr10-opt / no-dhdr10-opt / no-idr-recovery-sei / analysis-reuse-level=0 / analysis-save-reuse-level=0 / analysis-load-reuse-level=0 / scale-factor=0 / refine-intra=0 / refine-inter=0 / refine-mv=1 / refine-ctu-distortion=0 / no-limit-sao / ctu-info=0 / no-lowpass-dct / refine-analysis-type=0 / copy-pic=1 / max-ausize-factor=1.0 / no-dynamic-refine / no-single-sei / no-hevc-aq / no-svt / no-field / qp-adaptation-range=1.00 / no-scenecut-aware-qpconformance-window-offsets / right=0 / bottom=0

Language                                 : English

Default                                  : Yes

Forced                                   : No

Color range                              : Limited

Statistics Tags Issue                    : mkvmerge v12.0.0 ('Trust / Lust') 64bit 2017-05-27 03:43:29 / Lavf58.39.101

FromStats_BitRate                        : 30026036

FromStats_Duration                       : 00:24:04.073000000

FromStats_FrameCount                     : 34623

FromStats_StreamSize                     : 5419954871



Audio

ID                                       : 2

Format                                   : E-AC-3

Format/Info                              : Enhanced Audio Coding 3

Codec ID                                 : A_EAC3

Duration                                 : 24 min 4 s

Bit rate mode                            : Constant

Bit rate                                 : 448 kb/s

Channel(s)                               : 6 channels

Channel positions                        : Front: L C R, Side: L R, LFE

Sampling rate                            : 48.0 kHz

Frame rate                               : 187.500 FPS (256 SPF)

Bit depth                                : 24 bits

Compression mode                         : Lossy

Stream size                              : 77.1 MiB (18%)

Writing library                          : Lavc58.73.102 eac3

Language                                 : English

Service kind                             : Complete Main

Default                                  : Yes

Forced                                   : No

Statistics Tags Issue                    : mkvmerge v12.0.0 ('Trust / Lust') 64bit 2017-05-27 03:43:29 / Lavf58.39.101

FromStats_BitRate                        : 2630012

FromStats_Duration                       : 00:24:04.096000000

FromStats_FrameCount                     : 135382

FromStats_StreamSize                     : 474741944



Text #1

ID                                       : 3

Format                                   : PGS

Codec ID                                 : S_HDMV/PGS

Codec ID/Info                            : Picture based subtitle format used on BDs/HD-DVDs

Language                                 : English

Default                                  : No

Forced                                   : No

Statistics Tags Issue                    : mkvmerge v12.0.0 ('Trust / Lust') 64bit 2017-05-27 03:43:29 / Lavf58.39.101

FromStats_BitRate                        : 41824

FromStats_Duration                       : 00:23:16.359000000

FromStats_FrameCount                     : 589

FromStats_StreamSize                     : 7286059



Text #2

ID                                       : 4

Format                                   : PGS

Codec ID                                 : S_HDMV/PGS

Codec ID/Info                            : Picture based subtitle format used on BDs/HD-DVDs

Title                                    : SDH

Language                                 : English

Default                                  : No

Forced                                   : No

Statistics Tags Issue                    : mkvmerge v12.0.0 ('Trust / Lust') 64bit 2017-05-27 03:43:29 / Lavf58.39.101

FromStats_BitRate                        : 47891

FromStats_Duration                       : 00:23:16.359000000

FromStats_FrameCount                     : 710

FromStats_StreamSize                     : 8342888



Menu

00:00:00.000                             : :Chapter 1

00:07:13.933                             : :Chapter 2

00:16:37.038                             : :Chapter 3

00:23:28.616                             : :Chapter 4





Source Information



General

Unique ID                                : 125642747423098686564243255896738579986 (0x5E85E9B7775C1C67E795F00215AF4612)

Complete name                            : The.Legend.of.Korra.S01E01.Welcome.to.Republic.City.1080p.BluRay.REMUX.AVC.DTS-HD.MA.5.1-EPSiLON.mkv

Format                                   : Matroska

Format version                           : Version 4 / Version 2

File size                                : 5.54 GiB

Duration                                 : 24 min 4 s

Overall bit rate mode                    : Variable

Overall bit rate                         : 33.0 Mb/s

Encoded date                             : UTC 2017-05-27 03:43:29

Writing application                      : mkvmerge v12.0.0 ('Trust / Lust') 64bit

Writing library                          : libebml v1.3.4 + libmatroska v1.4.5



Video

ID                                       : 1

Format                                   : AVC

Format/Info                              : Advanced Video Codec

Format profile                           : [email protected]

Format settings                          : CABAC / 4 Ref Frames

Format settings, CABAC                   : Yes

Format settings, ReFrames                : 4 frames

Codec ID                                 : V_MPEG4/ISO/AVC

Duration                                 : 24 min 4 s

Bit rate mode                            : Variable

Bit rate                                 : 30.0 Mb/s

Maximum bit rate                         : 39.0 Mb/s

Width                                    : 1 920 pixels

Height                                   : 1 080 pixels

Display aspect ratio                     : 16:9

Frame rate mode                          : Constant

Frame rate                               : 23.976 (24000/1001) FPS

Color space                              : YUV

Chroma subsampling                       : 4:2:0

Bit depth                                : 8 bits

Scan type                                : Progressive

Bits/(Pixel*Frame)                       : 0.604

Stream size                              : 5.05 GiB (91%)

Title                                    : MPEG-4 AVC Video / ~31100 kbps / 1080p / 23.976 fps / 16:9 / High Profile 4.1

Language                                 : English

Default                                  : Yes

Forced                                   : No



Audio #1

ID                                       : 2

Format                                   : DTS

Format/Info                              : Digital Theater Systems

Format profile                           : MA / Core

Codec ID                                 : A_DTS

Duration                                 : 24 min 4 s

Bit rate mode                            : Variable / Constant

Bit rate                                 : 2 630 kb/s / 1 509 kb/s

Channel(s)                               : 6 channels

Channel positions                        : Front: L C R, Side: L R, LFE

Sampling rate                            : 48.0 kHz

Frame rate                               : 93.750 FPS (512 SPF)

Bit depth                                : 24 bits

Compression mode                         : Lossless / Lossy

Stream size                              : 453 MiB (8%)

Title                                    : DTS-HD Master Audio / 5.1 / 48 kHz / ~2700 kbps / 24-bit

Language                                 : English

Default                                  : Yes

Forced                                   : No



Audio #2

ID                                       : 3

Format                                   : AC-3

Format/Info                              : Audio Coding 3

Codec ID                                 : A_AC3

Duration                                 : 24 min 4 s

Bit rate mode                            : Constant

Bit rate                                 : 224 kb/s

Channel(s)                               : 2 channels

Channel positions                        : Front: L R

Sampling rate                            : 48.0 kHz

Frame rate                               : 31.250 FPS (1536 SPF)

Bit depth                                : 16 bits

Compression mode                         : Lossy

Stream size                              : 38.6 MiB (1%)

Title                                    : Commentary by co-creators Michael Dante DiMartino and Bryan Konietzko and actor Janet Varney / Dolby Digital Audio / 2.0 / 48 kHz / 224 kbps

Language                                 : English

Service kind                             : Complete Main

Default                                  : No

Forced                                   : No



Text #1

ID                                       : 4

Format                                   : PGS

Codec ID                                 : S_HDMV/PGS

Codec ID/Info                            : Picture based subtitle format used on BDs/HD-DVDs

Duration                                 : 23 min 13 s

Bit rate                                 : 41.8 kb/s

Count of elements                        : 589

Stream size                              : 6.95 MiB (0%)

Language                                 : English

Default                                  : No

Forced                                   : No



Text #2

ID                                       : 5

Format                                   : PGS

Codec ID                                 : S_HDMV/PGS

Codec ID/Info                            : Picture based subtitle format used on BDs/HD-DVDs

Duration                                 : 23 min 13 s

Bit rate                                 : 47.9 kb/s

Count of elements                        : 710

Stream size                              : 7.96 MiB (0%)

Title                                    : SDH

Language                                 : English

Default                                  : No

Forced                                   : No



Menu

00:00:00.000                             : en:Chapter 1

00:07:13.933                             : en:Chapter 2

00:16:37.038                             : en:Chapter 3

00:23:28.616                             : en:Chapter 4





Source

1080p Bluray Remux Epsilon S01,S03,S04

1080i Bluray Remux Epsilon S01





Thank you for all the hardwork you do, without it, this would not be possible!







Hello everyone,

We are TAoE, a small team of passionate encoders who love encoding. We try our best to provide you with high quality releases.

If you would like to join the team just drop us a comment or send us a message.





.........................................................................................................................................

Discussion

Comments 0

Post Your Comment

Files in this torrent

FILENAMESIZE
Season 01/The Legend of Korra (2012) S01E01 Welcome to Republic City (1080p BDrip x265 10bit EAC3 5.1 - Ainz)[TAoE].mkv428.7 MB
Season 01/The Legend of Korra (2012) S01E02 A Leaf in the Wind (1080p BDrip x265 10bit EAC3 5.1 - Ainz)[TAoE].mkv439.9 MB
Season 01/The Legend of Korra (2012) S01E03 The Revelation (1080p BDrip x265 10bit EAC3 5.1 - Ainz)[TAoE].mkv347.4 MB
Season 01/The Legend of Korra (2012) S01E04 The Voice in the Night (1080p BDrip x265 10bit EAC3 5.1 - Ainz)[TAoE].mkv324.8 MB
Season 01/The Legend of Korra (2012) S01E05 The Spirit of Competition (1080p BDrip x265 10bit EAC3 5.1 - Ainz)[TAoE].mkv415.8 MB
Season 01/The Legend of Korra (2012) S01E06 And the Winner Is (1080p BDrip x265 10bit EAC3 5.1 - Ainz)[TAoE].mkv385.7 MB
Season 01/The Legend of Korra (2012) S01E07 The Aftermath (1080p BDrip x265 10bit EAC3 5.1 - Ainz)[TAoE].mkv373.9 MB
Season 01/The Legend of Korra (2012) S01E08 When Extremes Meet (1080p BDrip x265 10bit EAC3 5.1 - Ainz)[TAoE].mkv358.7 MB
Season 01/The Legend of Korra (2012) S01E09 Out of the Past (1080p BDrip x265 10bit EAC3 5.1 - Ainz)[TAoE].mkv357.2 MB
Season 01/The Legend of Korra (2012) S01E10 Turning the Tides (1080p BDrip x265 10bit EAC3 5.1 - Ainz)[TAoE].mkv369.7 MB
Season 01/The Legend of Korra (2012) S01E11 Skeletons in the Closet (1080p BDrip x265 10bit EAC3 5.1 - Ainz)[TAoE].mkv373.8 MB
Season 01/The Legend of Korra (2012) S01E12 Endgame (1080p BDrip x265 10bit EAC3 5.1 - Ainz)[TAoE].mkv367.5 MB
Season 02/The Legend of Korra (2012) S02E01 Rebel Spirit (1080p BDrip x265 10bit EAC3 5.1 - Ainz)[TAoE].mkv423.4 MB
Season 02/The Legend of Korra (2012) S02E02 The Southern Lights (1080p BDrip x265 10bit EAC3 5.1 - Ainz)[TAoE].mkv463 MB
Season 02/The Legend of Korra (2012) S02E03 Civil Wars Part 1 (1080p BDrip x265 10bit EAC3 5.1 - Ainz)[TAoE].mkv320.5 MB
Season 02/The Legend of Korra (2012) S02E04 Civil Wars Part 2 (1080p BDrip x265 10bit EAC3 5.1 - Ainz)[TAoE].mkv305.6 MB
Season 02/The Legend of Korra (2012) S02E05 Peacekeepers (1080p BDrip x265 10bit EAC3 5.1 - Ainz)[TAoE].mkv365.4 MB
Season 02/The Legend of Korra (2012) S02E06 The Sting (1080p BDrip x265 10bit EAC3 5.1 - Ainz)[TAoE].mkv352.9 MB
Season 02/The Legend of Korra (2012) S02E07 Beginnings Part 1 (1080p BDrip x265 10bit EAC3 5.1 - Ainz)[TAoE].mkv555.6 MB
Season 02/The Legend of Korra (2012) S02E08 Beginnings Part 2 (1080p BDrip x265 10bit EAC3 5.1 - Ainz)[TAoE].mkv604.6 MB
Season 02/The Legend of Korra (2012) S02E09 The Guide (1080p BDrip x265 10bit EAC3 5.1 - Ainz)[TAoE].mkv360.6 MB
Season 02/The Legend of Korra (2012) S02E10 A New Spiritual Age (1080p BDrip x265 10bit EAC3 5.1 - Ainz)[TAoE].mkv376.9 MB
Season 02/The Legend of Korra (2012) S02E11 Night of a Thousand Stars (1080p BDrip x265 10bit EAC3 5.1 - Ainz)[TAoE].mkv354.2 MB
Season 02/The Legend of Korra (2012) S02E12 Harmonic Convergence (1080p BDrip x265 10bit EAC3 5.1 - Ainz)[TAoE].mkv454.6 MB
Season 02/The Legend of Korra (2012) S02E13 Darkness Falls (1080p BDrip x265 10bit EAC3 5.1 - Ainz)[TAoE].mkv434.1 MB
Season 02/The Legend of Korra (2012) S02E14 Light in the Dark (1080p BDrip x265 10bit EAC3 5.1 - Ainz)[TAoE].mkv420.1 MB
Season 03/The Legend of Korra (2012) S03E01 A Breath of Fresh Air (1080p BDrip x265 10bit EAC3 5.1 - Ainz)[TAoE].mkv399.5 MB
Season 03/The Legend of Korra (2012) S03E02 Rebirth of a Nation (1080p BDrip x265 10bit EAC3 5.1 - Ainz)[TAoE].mkv380 MB
Season 03/The Legend of Korra (2012) S03E03 The Earth Queen (1080p BDrip x265 10bit EAC3 5.1 - Ainz)[TAoE].mkv407 MB
Season 03/The Legend of Korra (2012) S03E04 In Harms Way (1080p BDrip x265 10bit EAC3 5.1 - Ainz)[TAoE].mkv380.2 MB
Season 03/The Legend of Korra (2012) S03E05 The Metal Clan (1080p BDrip x265 10bit EAC3 5.1 - Ainz)[TAoE].mkv363.6 MB
Season 03/The Legend of Korra (2012) S03E06 Old Wounds (1080p BDrip x265 10bit EAC3 5.1 - Ainz)[TAoE].mkv375.9 MB
Season 03/The Legend of Korra (2012) S03E07 Original Airbenders (1080p BDrip x265 10bit EAC3 5.1 - Ainz)[TAoE].mkv378.8 MB
Season 03/The Legend of Korra (2012) S03E08 The Terror Within (1080p BDrip x265 10bit EAC3 5.1 - Ainz)[TAoE].mkv352.1 MB
Season 03/The Legend of Korra (2012) S03E09 The Stakeout (1080p BDrip x265 10bit EAC3 5.1 - Ainz)[TAoE].mkv346.9 MB
Season 03/The Legend of Korra (2012) S03E10 Long Live the Queen (1080p BDrip x265 10bit EAC3 5.1 - Ainz)[TAoE].mkv326.6 MB
Season 03/The Legend of Korra (2012) S03E11 The Ultimatum (1080p BDrip x265 10bit EAC3 5.1 - Ainz)[TAoE].mkv384.4 MB
Season 03/The Legend of Korra (2012) S03E12 Enter the Void (1080p BDrip x265 10bit EAC3 5.1 - Ainz)[TAoE].mkv387.9 MB
Season 03/The Legend of Korra (2012) S03E13 Venom of the Red Lotus (1080p BDrip x265 10bit EAC3 5.1 - Ainz)[TAoE].mkv449.9 MB
Season 04/The Legend of Korra (2012) S04E01 After All These Years (1080p BDrip x265 10bit EAC3 5.1 - Ainz)[TAoE].mkv399.5 MB
Season 04/The Legend of Korra (2012) S04E02 Korra Alone (1080p BDrip x265 10bit EAC3 5.1 - Ainz)[TAoE].mkv337.9 MB
Season 04/The Legend of Korra (2012) S04E03 The Coronation (1080p BDrip x265 10bit EAC3 5.1 - Ainz)[TAoE].mkv297.1 MB
Season 04/The Legend of Korra (2012) S04E04 The Calling (1080p BDrip x265 10bit EAC3 5.1 - Ainz)[TAoE].mkv348.7 MB
Season 04/The Legend of Korra (2012) S04E05 Enemy at the Gates (1080p BDrip x265 10bit EAC3 5.1 - Ainz)[TAoE].mkv364.1 MB
Season 04/The Legend of Korra (2012) S04E06 Battle of Zaofu (1080p BDrip x265 10bit EAC3 5.1 - Ainz)[TAoE].mkv362.6 MB
Season 04/The Legend of Korra (2012) S04E07 Reunion (1080p BDrip x265 10bit EAC3 5.1 - Ainz)[TAoE].mkv429.7 MB
Season 04/The Legend of Korra (2012) S04E08 Remembrances (1080p BDrip x265 10bit EAC3 5.1 - Ainz)[TAoE].mkv352.6 MB
Season 04/The Legend of Korra (2012) S04E09 Beyond the Wilds (1080p BDrip x265 10bit EAC3 5.1 - Ainz)[TAoE].mkv354.8 MB
Season 04/The Legend of Korra (2012) S04E10 Operation Beifong (1080p BDrip x265 10bit EAC3 5.1 - Ainz)[TAoE].mkv399.3 MB
Season 04/The Legend of Korra (2012) S04E11 Kuviras Gambit (1080p BDrip x265 10bit EAC3 5.1 - Ainz)[TAoE].mkv310.8 MB
Season 04/The Legend of Korra (2012) S04E12 Day of the Colossus (1080p BDrip x265 10bit EAC3 5.1 - Ainz)[TAoE].mkv477.5 MB
Season 04/The Legend of Korra (2012) S04E13 The Last Stand (1080p BDrip x265 10bit EAC3 5.1 - Ainz)[TAoE].mkv501.5 MB

Alternative Torrents for 'Legend of Korra S bit EAC Ainz'.

There are no alternative torrents found.