The Invisible Man 2020 SDR WEB-DL 2160p W

Torrent Details

The Invisible Man 2020 SDR WEB-DL 2160p W
The Invisible Man 2020 SDR WEB-DL 2160p W

NAME
The Invisible Man 2020 SDR WEB-DL 2160p W.torrent
CATEGORY
Movies
INFOHASH
b30fced2ebbf1c5fe41e96927beb543ac9a29441
SIZE
14.8 GB in 1 file
ADDED
Uploaded on 07-04-2020 by our crawler pet called "Spidey".
SWARM
0 seeders & 0 peers
RATING
No votes yet.

Please login to vote for this torrent.


Description

Информация о фильме

Название: Человек-невидимка

Оригинальное название: The Invisible Man

Год выхода: 2020

Жанр: Ужасы, фантастика, триллер, детектив

Режиссер: Ли Уоннелл

В ролях: Элизабет Мосс, Оливер Джексон-Коэн, Харриет Дайер, Элдис Ходж, Сторм Рейд, Майкл Дорман, Бенедикт Харди, Рени Лим, Брайан Миган, Ник Кичи



О фильме:

На первый взгляд жизнь Сесилии кажется безупречной: огромный дом, бойфренд - гениальный ученый-миллионер. Но никто не знает, что на самом деле происходит за высокими стенами роскошного особняка... И даже идеально спланированный побег оказывается ловушкой. Невозможно спрятаться от преследователя, которого не видишь.







Страна: Австралия, США, Канада, Великобритания

Студия: Goalpost Pictures, Blumhouse Productions, Dark Universe

Продолжительность: 02:04:20

Перевод: Дублированный (iTunes), Профессиональный (многоголосый закадровый) - HDrezka Studio



Файл

Качество: WEB-DL 2160p | SDR

Видео: HEVC/H.265, 3840x2160, ~15,6 Мbps, 23.976 fps

Звук:

Аудио 1: AC3, 6 ch, 384 Kbps - Русский (DUB)

Аудио 2: AC3, 6 ch, 448 Kbps - Русский (MVO HDrezka Studio)

Аудио 3: E-AC3, 6 ch, 640 Kbps - Английский

Субтитры: русские (Forced, Full), английские (Full, SDH)



MediainfoОбщее

Уникальный идентификатор : 247294343751037662493807239625233048093 (0xBA0B287DE132534248B6B59D30F6A21D)

Полное имя : The Invisible Man.2020.SDR.WEB-DL.2160p.W.mkv

Формат : Matroska

Версия формата : Version 4

Размер файла : 14,8 Гбайт

Продолжительность : 2 ч. 4 м.

Общий поток : 17,1 Мбит/сек

Название фильма : The Invisible Man.2020.SDR.WEB-DL.2160p.W

Дата кодирования : UTC 2020-04-07 09:59:29

Программа кодирования : mkvmerge v23.0.0 ('The Bride Said No') 64-bit

Библиотека кодирования : libebml v1.3.6 + libmatroska v1.4.9



Видео

Идентификатор : 1

Формат : HEVC

Формат/Информация : High Efficiency Video Coding

Профиль формата : [email protected]@Main

Идентификатор кодека : V_MPEGH/ISO/HEVC

Продолжительность : 2 ч. 4 м.

Битрейт : 15,6 Мбит/сек

Ширина : 3 840 пикселей

Высота : 2 160 пикселей

Соотношение сторон : 16:9

Режим частоты кадров : Постоянный

Частота кадров : 23,976 (24000/1001) кадра/сек

Частота кадров в оригинале : 23,976 (23976/1000) кадра/сек

Цветовое пространство : YUV

Субдискретизация насыщенности : 4:2:0

Битовая глубина : 8 бит

Бит/(Пиксели*Кадры) : 0.078

Размер потока : 13,6 Гбайт (91%)

Библиотека кодирования : x265 3.0_RC+11-72188bd2f034:[Linux][GCC 4.9.2][64 bit] 8bit+10bit+12bit

Настройки программы : cpuid=1111039 / frame-threads=3 / wpp / no-pmode / no-pme / no-psnr / no-ssim / log-level=2 / input-csp=1 / input-res=3840x2160 / interlace=0 / total-frames=0 / level-idc=51 / high-tier=1 / uhd-bd=0 / ref=4 / no-allow-non-conformance / no-repeat-headers / annexb / no-aud / no-hrd / info / hash=0 / no-temporal-layers / no-open-gop / min-keyint=24 / keyint=48 / gop-lookahead=0 / bframes=3 / b-adapt=0 / no-b-pyramid / bframe-bias=0 / rc-lookahead=15 / lookahead-slices=8 / scenecut=0 / radl=0 / no-splice / no-intra-refresh / ctu=64 / min-cu-size=8 / no-rect / no-amp / max-tu-size=32 / tu-inter-depth=1 / tu-intra-depth=1 / limit-tu=0 / rdoq-level=0 / dynamic-rd=0.00 / no-ssim-rd / signhide / no-tskip / nr-intra=0 / nr-inter=0 / no-constrained-intra / strong-intra-smoothing / max-merge=2 / limit-refs=3 / no-limit-modes / me=1 / subme=2 / merange=57 / temporal-mvp / weightp / no-weightb / no-analyze-src-pics / deblock=0:0 / sao / no-sao-non-deblock / rd=2 / no-early-skip / rskip / fast-intra / no-tskip-fast / no-cu-lossless / no-b-intra / no-splitrd-skip / rdpenalty=0 / psy-rd=2.00 / psy-rdoq=0.00 / no-rd-refine / no-lossless / cbqpoffs=0 / crqpoffs=0 / rc=cbr / bitrate=16000 / qcomp=0.60 / qpstep=4 / stats-write=0 / stats-read=0 / vbv-maxrate=16000 / vbv-bufsize=32000 / vbv-init=0.9 / ipratio=1.40 / pbratio=1.30 / aq-mode=2 / aq-strength=1.00 / cutree / zone-count=0 / no-strict-cbr / qg-size=32 / no-rc-grain / qpmax=69 / qpmin=0 / no-const-vbv / sar=1 / overscan=0 / videoformat=5 / range=0 / colorprim=2 / transfer=2 / colormatrix=2 / chromaloc=0 / display-window=0 / max-cll=0,0 / min-luma=0 / max-luma=255 / log2-max-poc-lsb=8 / vui-timing-info / vui-hrd-info / slices=1 / no-opt-qp-pps / no-opt-ref-list-length-pps / no-multi-pass-opt-rps / scenecut-bias=0.05 / no-opt-cu-delta-qp / no-aq-motion / no-hdr / no-hdr-opt / no-dhdr10-opt / no-idr-recovery-sei / analysis-reuse-level=5 / scale-factor=0 / refine-intra=0 / refine-inter=0 / refine-mv=0 / refine-ctu-distortion=0 / no-limit-sao / ctu-info=0 / no-lowpass-dct / refine-analysis-type=0 / copy-pic=1 / max-ausize-factor=1.0 / no-dynamic-refine / no-single-sei / no-hevc-aq / qp-adaptation-range=1.00

Язык : English

Default : Да

Forced : Нет



Аудио #1

Идентификатор : 2

Формат : AC-3

Формат/Информация : Audio Coding 3

Коммерческое название : Dolby Digital

Идентификатор кодека : A_AC3

Продолжительность : 2 ч. 4 м.

Вид битрейта : Постоянный

Битрейт : 384 Кбит/сек

Каналы : 6 каналов

Channel layout : L R C LFE Ls Rs

Частота : 48,0 КГц

Частота кадров : 31,250 кадров/сек (1536 SPF)

Метод сжатия : С потерями

Размер потока : 341 Мбайт (2%)

Заголовок : DUB | iTunes

Язык : Russian

Service kind : Complete Main

Default : Да

Forced : Нет



Аудио #2

Идентификатор : 3

Формат : AC-3

Формат/Информация : Audio Coding 3

Коммерческое название : Dolby Digital

Идентификатор кодека : A_AC3

Продолжительность : 2 ч. 4 м.

Вид битрейта : Постоянный

Битрейт : 448 Кбит/сек

Каналы : 6 каналов

Channel layout : L R C LFE Ls Rs

Частота : 48,0 КГц

Частота кадров : 31,250 кадров/сек (1536 SPF)

Метод сжатия : С потерями

Размер потока : 398 Мбайт (3%)

Заголовок : MVO | HDrezka Studio

Язык : Russian

Service kind : Complete Main

Default : Нет

Forced : Нет



Аудио #3

Идентификатор : 4

Формат : E-AC-3

Формат/Информация : Enhanced AC-3

Коммерческое название : Dolby Digital Plus

Идентификатор кодека : A_EAC3

Продолжительность : 2 ч. 4 м.

Вид битрейта : Постоянный

Битрейт : 640 Кбит/сек

Каналы : 6 каналов

Channel layout : L R C LFE Ls Rs

Частота : 48,0 КГц

Частота кадров : 31,250 кадров/сек (1536 SPF)

Метод сжатия : С потерями

Задержка видео : 6 мс.

Размер потока : 569 Мбайт (4%)

Язык : English

Service kind : Complete Main

Default : Нет

Forced : Нет



Текст #1

Идентификатор : 5

Формат : UTF-8

Идентификатор кодека : S_TEXT/UTF8

Идентификатор кодека/Информация : UTF-8 Plain Text

Продолжительность : 1 ч. 45 м.

Битрейт : 0 бит/сек

Count of elements : 12

Размер потока : 587 байт (0%)

Заголовок : Forced

Язык : Russian

Default : Да

Forced : Нет



Текст #2

Идентификатор : 6

Формат : UTF-8

Идентификатор кодека : S_TEXT/UTF8

Идентификатор кодека/Информация : UTF-8 Plain Text

Продолжительность : 1 ч. 53 м.

Битрейт : 48 бит/сек

Count of elements : 958

Размер потока : 40,6 Кбайт (0%)

Заголовок : Mallorn

Язык : Russian

Default : Нет

Forced : Нет



Текст #3

Идентификатор : 7

Формат : UTF-8

Идентификатор кодека : S_TEXT/UTF8

Идентификатор кодека/Информация : UTF-8 Plain Text

Продолжительность : 1 ч. 49 м.

Битрейт : 33 бит/сек

Count of elements : 965

Размер потока : 26,8 Кбайт (0%)

Язык : English

Default : Нет

Forced : Нет



Текст #4

Идентификатор : 8

Формат : UTF-8

Идентификатор кодека : S_TEXT/UTF8

Идентификатор кодека/Информация : UTF-8 Plain Text

Продолжительность : 2 ч. 4 м.

Битрейт : 43 бит/сек

Count of elements : 1416

Размер потока : 39,3 Кбайт (0%)

Заголовок : SDH

Язык : English

Default : Нет

Forced : Нет

Скриншоты

Discussion

Comments 0

Post Your Comment

Files in this torrent

FILENAMESIZE
The Invisible Man.2020.SDR.WEB-DL.2160p.W.mkv14.8 GB

Alternative Torrents for 'Invisible Man SDR'.

TORRENT NAMEADDEDSIZESEEDSPEERSHEALTH
5/21/202027 GB00
5/21/202025.3 GB00
4/7/202014.8 GB00