Kung Fu Panda - The Paws Of Destiny (2018) S01 (1080p AMZN Webrip X265 10bit EAC3 5.1 - Ainz)[TAoE]

Torrent Details

Kung Fu Panda - The Paws of Destiny (2018) S01 (1080p AMZN Webrip x265 10bit EAC3 5.1 - Ainz)<span style=color:#fc9c6d>[TAoE]</span>
Kung Fu Panda - The Paws of Destiny (2018) S01 (1080p AMZN Webrip x265 10bit EAC3 5.1 - Ainz)<span style=color:#fc9c6d>[TAoE]</span>

NAME
Kung Fu Panda - The Paws of Destiny (2018) S01 (1080p AMZN Webrip x265 10bit EAC3 5.1 - Ainz)[TAoE].torrent
CATEGORY
Television
INFOHASH
be8c917c4e84d89f0c45c3ff96eca49f69969678
SIZE
13.7 GB in 26 files
ADDED
Uploaded on 08-04-2020 by our crawler pet called "Spidey".
SWARM
0 seeders & 0 peers
RATING
No votes yet.

Please login to vote for this torrent.


Description









Kung Fu Panda : Paws of Destiny

(2018) IMDB









































Synopsis

As the Dragon Master, Po has endured his fair share of epic challenges but nothing could prepare him for his greatest one yet-as a Kung Fu teacher to a group of rambunctious kids from Panda..



Media Information



General

Unique ID                                : 304387350831910016602600923152612520880 (0xE4FEDF11D764AA61B042EB0AD9EEF3B0)

Complete name                            : /Users/inzi/Downloads/Kung Fu Panda - The Paws of Destiny (2018) S01E01 Enter the Dragon Master (1080p AMZN Webrip x265 10bit EAC3 5.1 - Ainz)[TAoE].mkv

Format                                   : Matroska

Format version                           : Version 4

File size                                : 505 MiB

Duration                                 : 22mn 40s

Overall bit rate                         : 3 116 Kbps

Writing application                      : Lavf58.42.100

Writing library                          : Lavf58.42.100

ErrorDetectionType                       : Per level 1



Video

ID                                       : 1

Format                                   : HEVC

Format/Info                              : High Efficiency Video Coding

Format profile                           : Main [email protected]@Main

Codec ID                                 : V_MPEGH/ISO/HEVC

Duration                                 : 22mn 40s

Bit rate                                 : 6 260 Kbps

Width                                    : 1 920 pixels

Height                                   : 1 080 pixels

Display aspect ratio                     : 16:9

Frame rate mode                          : Constant

Frame rate                               : 23.976 (24000/1001) fps

Color space                              : YUV

Chroma subsampling                       : 4:2:0

Bit depth                                : 10 bits

Bits/(Pixel*Frame)                       : 0.126

Stream size                              : 1 015 MiB

Writing library                          : x265 3.3+2-dd2464df2f40:[Linux][GCC 8.3.0][64 bit] 10bit

Encoding settings                        : cpuid=1111039 / frame-threads=3 / numa-pools=8 / wpp / no-pmode / no-pme / no-psnr / no-ssim / log-level=2 / input-csp=1 / input-res=1920x1080 / interlace=0 / total-frames=0 / level-idc=0 / high-tier=1 / uhd-bd=0 / ref=4 / no-allow-non-conformance / no-repeat-headers / annexb / no-aud / no-hrd / info / hash=0 / no-temporal-layers / open-gop / min-keyint=23 / keyint=250 / gop-lookahead=0 / bframes=8 / b-adapt=2 / b-pyramid / bframe-bias=0 / rc-lookahead=80 / lookahead-slices=4 / scenecut=40 / hist-scenecut=0 / radl=0 / no-splice / no-intra-refresh / ctu=64 / min-cu-size=8 / no-rect / no-amp / max-tu-size=32 / tu-inter-depth=1 / tu-intra-depth=1 / limit-tu=0 / rdoq-level=2 / dynamic-rd=0.00 / no-ssim-rd / signhide / no-tskip / nr-intra=0 / nr-inter=0 / no-constrained-intra / no-strong-intra-smoothing / max-merge=3 / limit-refs=3 / limit-modes / me=3 / subme=5 / merange=57 / temporal-mvp / no-frame-dup / no-hme / weightp / no-weightb / no-analyze-src-pics / deblock=0:0 / sao / no-sao-non-deblock / rd=4 / selective-sao=4 / no-early-skip / rskip / no-fast-intra / no-tskip-fast / no-cu-lossless / no-b-intra / no-splitrd-skip / rdpenalty=0 / psy-rd=1.30 / psy-rdoq=2.00 / no-rd-refine / no-lossless / cbqpoffs=0 / crqpoffs=0 / rc=crf / crf=20.0 / qcomp=0.60 / qpstep=4 / stats-write=0 / stats-read=0 / ipratio=1.40 / pbratio=1.30 / aq-mode=4 / aq-strength=1.10 / cutree / zone-count=0 / no-strict-cbr / qg-size=32 / no-rc-grain / qpmax=69 / qpmin=0 / no-const-vbv / sar=1 / overscan=0 / videoformat=5 / range=0 / colorprim=2 / transfer=2 / colormatrix=2 / chromaloc=0 / display-window=0 / cll=0,0 / min-luma=0 / max-luma=1023 / log2-max-poc-lsb=8 / vui-timing-info / vui-hrd-info / slices=1 / no-opt-qp-pps / no-opt-ref-list-length-pps / no-multi-pass-opt-rps / scenecut-bias=0.05 / hist-threshold=0.01 / no-opt-cu-delta-qp / no-aq-motion / no-hdr10 / no-hdr10-opt / no-dhdr10-opt / no-idr-recovery-sei / analysis-reuse-level=0 / analysis-save-reuse-level=0 / analysis-load-reuse-level=0 / scale-factor=0 / refine-intra=0 / refine-inter=0 / refine-mv=1 / refine-ctu-distortion=0 / no-limit-sao / ctu-info=0 / no-lowpass-dct / refine-analysis-type=0 / copy-pic=1 / max-ausize-factor=1.0 / no-dynamic-refine / no-single-sei / no-hevc-aq / no-svt / no-field / qp-adaptation-range=1.00 / no-scenecut-aware-qpconformance-window-offsets / right=0 / bottom=0

Default                                  : Yes

Forced                                   : No

Color range                              : Limited



Audio

ID                                       : 2

Format                                   : E-AC-3

Format/Info                              : Enhanced AC-3

Commercial name                          : Dolby Digital Plus

Codec ID                                 : A_EAC3

Duration                                 : 22mn 40s

Bit rate mode                            : Constant

Bit rate                                 : 640 Kbps

Channel(s)                               : 6 channels

Channel layout                           : L R C LFE Ls Rs

Sampling rate                            : 48.0 KHz

Frame rate                               : 31.250 fps (1536 SPF)

Bit depth                                : 32 bits

Compression mode                         : Lossy

Stream size                              : 104 MiB (21%)

Language                                 : English

Service kind                             : Complete Main

Default                                  : Yes

Forced                                   : No



Text

ID                                       : 3

Format                                   : UTF-8

Codec ID                                 : S_TEXT/UTF8

Codec ID/Info                            : UTF-8 Plain Text

Duration                                 : 22mn 12s

Bit rate                                 : 64 bps

Count of elements                        : 312

Stream size                              : 10.3 KiB (0%)

Title                                    : English [SDH]

Language                                 : English

Default                                  : No

Forced                                   : No



Menu

00:00:00.000                             : :Amazon Original

00:00:05.000                             : :Studio Logo

00:00:47.000                             : :A game accidentally turns into a disaster

00:07:16.000                             : :The Temple of the Four Constellations

00:12:39.000                             : :The kids ask Master Po for help

00:17:35.000                             : :Unexpected trouble enters the panda village

00:22:02.000                             : :End Credits





Source

1080p WEB-DL AMZN RCVR





Hello everyone,

We are TAoE, a small team of passionate encoders who love encoding. We try our best to provide you with high quality releases.

If you would like to join the team just drop us a comment or send us a message.





.........................................................................................................................................

Discussion

Comments 0

Post Your Comment

Files in this torrent

FILENAMESIZE
Kung Fu Panda - The Paws of Destiny (2018) S01E01 Enter the Dragon Master (1080p AMZN Webrip x265 10bit EAC3 5.1 - Ainz)[TAoE].mkv505.3 MB
Kung Fu Panda - The Paws of Destiny (2018) S01E02 Blue Dragon Plays with Fire (1080p AMZN Webrip x265 10bit EAC3 5.1 - Ainz)[TAoE].mkv513.3 MB
Kung Fu Panda - The Paws of Destiny (2018) S01E03 Blade of the Red Phoenix (1080p AMZN Webrip x265 10bit EAC3 5.1 - Ainz)[TAoE].mkv544.2 MB
Kung Fu Panda - The Paws of Destiny (2018) S01E04 The Intruder Flies a Crooked Path (1080p AMZN Webrip x265 10bit EAC3 5.1 - Ainz)[TAoE].mkv558.2 MB
Kung Fu Panda - The Paws of Destiny (2018) S01E05 A Fistful of Herbs (1080p AMZN Webrip x265 10bit EAC3 5.1 - Ainz)[TAoE].mkv525.7 MB
Kung Fu Panda - The Paws of Destiny (2018) S01E06 Poison in the Pit of the Plum (1080p AMZN Webrip x265 10bit EAC3 5.1 - Ainz)[TAoE].mkv549.1 MB
Kung Fu Panda - The Paws of Destiny (2018) S01E07 Big Trouble in Panda - Village (1080p AMZN Webrip x265 10bit EAC3 5.1 - Ainz)[TAoE].mkv514.9 MB
Kung Fu Panda - The Paws of Destiny (2018) S01E08 Secrets Lost to Shadow (1080p AMZN Webrip x265 10bit EAC3 5.1 - Ainz)[TAoE].mkv537.6 MB
Kung Fu Panda - The Paws of Destiny (2018) S01E09 Out of the Cave and Onto Thin Ice (1080p AMZN Webrip x265 10bit EAC3 5.1 - Ainz)[TAoE].mkv548.4 MB
Kung Fu Panda - The Paws of Destiny (2018) S01E10 Return of the Four Constellations (1080p AMZN Webrip x265 10bit EAC3 5.1 - Ainz)[TAoE].mkv541.2 MB
Kung Fu Panda - The Paws of Destiny (2018) S01E11 Unholy Dragon Returns to the Mountains (1080p AMZN Webrip x265 10bit EAC3 5.1 - Ainz)[TAoE].mkv627.8 MB
Kung Fu Panda - The Paws of Destiny (2018) S01E12 Sacrifice at the Edge of Time (1080p AMZN Webrip x265 10bit EAC3 5.1 - Ainz)[TAoE].mkv542.8 MB
Kung Fu Panda - The Paws of Destiny (2018) S01E13 End of the Dragon Master (1080p AMZN Webrip x265 10bit EAC3 5.1 - Ainz)[TAoE].mkv585 MB
Kung Fu Panda - The Paws of Destiny (2018) S01E14 Journey to the East (1080p AMZN Webrip x265 10bit EAC3 5.1 - Ainz)[TAoE].mkv525.6 MB
Kung Fu Panda - The Paws of Destiny (2018) S01E15 Curse of the Monkey King (1080p AMZN Webrip x265 10bit EAC3 5.1 - Ainz)[TAoE].mkv557.2 MB
Kung Fu Panda - The Paws of Destiny (2018) S01E16 A Game of Fists (1080p AMZN Webrip x265 10bit EAC3 5.1 - Ainz)[TAoE].mkv506.4 MB
Kung Fu Panda - The Paws of Destiny (2018) S01E17 The Beast of the Wasteland (1080p AMZN Webrip x265 10bit EAC3 5.1 - Ainz)[TAoE].mkv570.4 MB
Kung Fu Panda - The Paws of Destiny (2018) S01E18 Danger in the Forbidden City (1080p AMZN Webrip x265 10bit EAC3 5.1 - Ainz)[TAoE].mkv621.7 MB
Kung Fu Panda - The Paws of Destiny (2018) S01E19 The Battle s of Gongmen Bay (1080p AMZN Webrip x265 10bit EAC3 5.1 - Ainz)[TAoE].mkv547 MB
Kung Fu Panda - The Paws of Destiny (2018) S01E20 Gongmen City Hustle (1080p AMZN Webrip x265 10bit EAC3 5.1 - Ainz)[TAoE].mkv497.5 MB
Kung Fu Panda - The Paws of Destiny (2018) S01E21 Night of the White Bone Demon (1080p AMZN Webrip x265 10bit EAC3 5.1 - Ainz)[TAoE].mkv506.3 MB
Kung Fu Panda - The Paws of Destiny (2018) S01E22 Rise of the Empress (1080p AMZN Webrip x265 10bit EAC3 5.1 - Ainz)[TAoE].mkv542.7 MB
Kung Fu Panda - The Paws of Destiny (2018) S01E23 Bridge Over Troubled Lava (1080p AMZN Webrip x265 10bit EAC3 5.1 - Ainz)[TAoE].mkv515.8 MB
Kung Fu Panda - The Paws of Destiny (2018) S01E24 House of Flying Pandas (1080p AMZN Webrip x265 10bit EAC3 5.1 - Ainz)[TAoE].mkv605.9 MB
Kung Fu Panda - The Paws of Destiny (2018) S01E25 Coronation of the Iron Goddess (1080p AMZN Webrip x265 10bit EAC3 5.1 - Ainz)[TAoE].mkv472.7 MB
Kung Fu Panda - The Paws of Destiny (2018) S01E26 The Invincible Armour (1080p AMZN Webrip x265 10bit EAC3 5.1 - Ainz)[TAoE].mkv467.1 MB

Alternative Torrents for 'Kung Fu Panda Paws of Destiny bit EAC Ainz'.

TORRENT NAMEADDEDSIZESEEDSPEERSHEALTH
9/7/20201.4 GB138988
9/14/20201.3 GB115445
9/12/20201.3 GB94017
9/12/2020696 MB85519
9/5/20201.3 GB7629
9/14/2020698 MB72526
Today645 MB659409
9/7/20201.3 GB65716
9/14/2020796 MB620168
9/15/2020772 MB577109
9/5/2020697 MB51510
Today1.3 GB478229
9/7/2020696 MB47121
9/7/2020697 MB43613
9/15/20201.5 GB33768