Bad Boys For Life 2020 BDREMUX 1080p SeleZen

Torrent Details

Bad Boys for Life 2020 BDREMUX 1080p<span style=color:#fc9c6d> seleZen</span>
Bad Boys for Life 2020 BDREMUX 1080p<span style=color:#fc9c6d> seleZen</span>

NAME
Bad Boys for Life 2020 BDREMUX 1080p seleZen.torrent
CATEGORY
Movies
INFOHASH
97c3789268f644c613b2d1eee11b3f21da995802
SIZE
25.3 GB in 1 file
ADDED
Uploaded on 08-04-2020 by our crawler pet called "Spidey".
SWARM
0 seeders & 0 peers
RATING
No votes yet.

Please login to vote for this torrent.


Description

Информация о фильме

Название: Плохие парни навсегда

Оригинальное название: Bad Boys for Life

Год выхода: 2020

Жанр: Боевик, триллер, комедия, криминал

Режиссер: Адиль Эль Арби, Билал Фалла

В ролях: Уилл Смит, Мартин Лоуренс, Александр Людвиг, Ванесса Энн Хадженс, Майкл Бэй, Джо Пантолиано, Паола Нуньес, Чарльз Мелтон, Кейт дель Кастильо, Ники Джем, Джейкоб Скипио







О фильме: Детективы Майк Лоури и Маркус Бёрнетт снова в деле! Правда, их отстраняют от всех операций, но разве отчаянных друзей когда-нибудь что-либо останавливало? Ведь на этот раз на Майка открывает охоту некто из его прошлой жизни. Так что парням придется отжечь по полной!



Страна: США, Мексика

Студия: Columbia Pictures, 2.0 Entertainment, Columbia Pictures Mexico

Продолжительность: 02:03:58

Перевод(ы):

#1: Дублированный | iTunes

#2: Профессиональный многоголосый | HDRezka Studio



Качество: BDRemux 1080p

Видео: MPEG-4 AVC, 1920x1080, 25.9 Mbit/s, 23.976 fps

Аудио #01: 48 kHz, AC3, 5.1, 384 Kbps | iTunes | RUS |

Аудио #02: 48 kHz, AC3, 5.1, 448 Kbps | HDRezka Studio | RUS |

Аудио #03: 48 kHz, AC3, 2.0, 192 Kbps | iTunes | UKR |

Аудио #04: 48 kHz, DTS-HD MA, 5.1, 2306 Kbps | Оригинал | ENG |

Субтитры: Русские (Forced, Full), украинские (Forced, Full), английские







MIGeneral

Unique ID : 247327501041321388338164199390490064945 (0xBA118B45B859D0EDB11ED0EF7C06F831)

Complete name : F:Bad.Boys.for.Life.2020.BDREMUX.1080p.seleZen.mkv

Format : Matroska

Format version : Version 2

File size : 25.3 GiB

Duration : 2 h 3 min

Overall bit rate mode : Variable

Overall bit rate : 29.2 Mb/s

Movie name : Bad Boys for Life 2020 from селезень

Encoded date : UTC 2020-04-08 20:42:18

Writing application : mkvmerge v7.8.0 ('River Man') 32bit built on Apr 3 2015 12:11:22

Writing library : libebml v1.3.1 + libmatroska v1.4.2



Video

ID : 1

Format : AVC

Format/Info : Advanced Video Codec

Format profile : [email protected]

Format settings : CABAC / 2 Ref Frames

Format settings, CABAC : Yes

Format settings, Reference : 2 frames

Format settings, GOP : M=1, N=10

Codec ID : V_MPEG4/ISO/AVC

Duration : 2 h 3 min

Bit rate mode : Variable

Width : 1 920 pixels

Height : 1 080 pixels

Display aspect ratio : 16:9

Frame rate mode : Constant

Frame rate : 23.976 (24000/1001) FPS

Color space : YUV

Chroma subsampling : 4:2:0

Bit depth : 8 bits

Scan type : Progressive

Language : English

Default : Yes

Forced : No



Audio #1

ID : 2

Format : AC-3

Format/Info : Audio Coding 3

Commercial name : Dolby Digital

Codec ID : A_AC3

Duration : 2 h 3 min

Bit rate mode : Constant

Bit rate : 384 kb/s

Channel(s) : 6 channels

Channel layout : L R C LFE Ls Rs

Sampling rate : 48.0 kHz

Frame rate : 31.250 FPS (1536 SPF)

Compression mode : Lossy

Stream size : 341 MiB (1%)

Title : Dub [iTunes]

Language : Russian

Service kind : Complete Main

Default : Yes

Forced : Yes



Audio #2

ID : 3

Format : AC-3

Format/Info : Audio Coding 3

Commercial name : Dolby Digital

Codec ID : A_AC3

Duration : 2 h 3 min

Bit rate mode : Constant

Bit rate : 448 kb/s

Channel(s) : 6 channels

Channel layout : L R C LFE Ls Rs

Sampling rate : 48.0 kHz

Frame rate : 31.250 FPS (1536 SPF)

Compression mode : Lossy

Stream size : 397 MiB (2%)

Title : MVO [HDRezka Studio]

Language : Russian

Service kind : Complete Main

Default : No

Forced : No



Audio #3

ID : 4

Format : AC-3

Format/Info : Audio Coding 3

Commercial name : Dolby Digital

Codec ID : A_AC3

Duration : 2 h 3 min

Bit rate mode : Constant

Bit rate : 192 kb/s

Channel(s) : 2 channels

Channel layout : L R

Sampling rate : 48.0 kHz

Frame rate : 31.250 FPS (1536 SPF)

Compression mode : Lossy

Stream size : 170 MiB (1%)

Title : iTunes

Language : Ukrainian

Service kind : Complete Main

Default : No

Forced : No



Audio #4

ID : 5

Format : DTS XLL

Format/Info : Digital Theater Systems

Commercial name : DTS-HD Master Audio

Codec ID : A_DTS

Duration : 2 h 3 min

Bit rate mode : Variable

Channel(s) : 6 channels

Channel layout : C L R Ls Rs LFE

Sampling rate : 48.0 kHz

Frame rate : 93.750 FPS (512 SPF)

Bit depth : 16 bits

Compression mode : Lossless

Title : Original

Language : English

Default : No

Forced : No



Text #1

ID : 6

Format : UTF-8

Codec ID : S_TEXT/UTF8

Codec ID/Info : UTF-8 Plain Text

Title : Forced

Language : Russian

Default : Yes

Forced : Yes



Text #2

ID : 7

Format : UTF-8

Codec ID : S_TEXT/UTF8

Codec ID/Info : UTF-8 Plain Text

Title : Full

Language : Russian

Default : No

Forced : No



Text #3

ID : 8

Format : UTF-8

Codec ID : S_TEXT/UTF8

Codec ID/Info : UTF-8 Plain Text

Title : Forced

Language : Ukrainian

Default : No

Forced : No



Text #4

ID : 9

Format : UTF-8

Codec ID : S_TEXT/UTF8

Codec ID/Info : UTF-8 Plain Text

Title : Full

Language : Ukrainian

Default : No

Forced : No



Text #5

ID : 10

Format : UTF-8

Codec ID : S_TEXT/UTF8

Codec ID/Info : UTF-8 Plain Text

Language : English

Default : No

Forced : No



Menu

00:00:00.000 : en:Capítulo 01

00:07:33.202 : en:Capítulo 02

00:14:56.645 : en:Capítulo 03

00:23:43.255 : en:Capítulo 04

00:31:05.613 : en:Capítulo 05

00:38:43.070 : en:Capítulo 06

00:45:26.348 : en:Capítulo 07

00:53:27.329 : en:Capítulo 08

01:00:22.035 : en:Capítulo 09

01:07:29.253 : en:Capítulo 10

01:12:55.162 : en:Capítulo 11

01:22:12.344 : en:Capítulo 12

01:29:49.092 : en:Capítulo 13

01:36:47.802 : en:Capítulo 14

01:42:08.580 : en:Capítulo 15

01:53:55.912 : en:Capítulo 16



Релиз от:



Discussion

Comments 0

Post Your Comment

Files in this torrent

FILENAMESIZE
Bad.Boys.for.Life.2020.BDREMUX.1080p.seleZen.mkv25.3 GB

Alternative Torrents for 'Bad Boys for Life'.

TORRENT NAMEADDEDSIZESEEDSPEERSHEALTH
8/3/20201.4 GB14
7/28/20208.7 GB01
7/21/20201.9 GB00
7/19/20202.3 GB00
7/12/20202.8 GB00
7/12/20202.8 GB00
7/12/20201.6 GB00
6/30/20201.3 GB00
6/26/202020.8 GB00
6/22/20203.3 GB00
6/22/20209.9 GB00
6/18/20201.1 GB00
6/18/2020266 MB00
6/15/202047.4 GB00
6/4/20205.8 GB00