1917 (Paths Of Glory Edition - Black And White) [2019] - 7 1 Dolby TrueHD Atmos 1080p H 264 [SexySadist]

Torrent Details


1917 (Paths of Glory Edition - Black and White) [2019] - 7 1 Dolby TrueHD Atmos 1080p H 264 [SexySadist]

NAME
1917 (Paths of Glory Edition - Black and White) [2019] - 7 1 Dolby TrueHD Atmos 1080p H 264 [SexySadist].torrent
CATEGORY
Movies
INFOHASH
e86c928add10423b6014b913ea405f79225a6eaa
SIZE
15.3 GB in 43 files
ADDED
Uploaded on 11-04-2020 by our crawler pet called "Spidey".
SWARM
0 seeders & 0 peers
RATING
No votes yet.

Please login to vote for this torrent.


Description

    1917 (Paths of Glory Edition - Black and White) [2019]

        7.1 Dolby TrueHD Atmos 1080p H.264 [SexySadist]



Set in the No Man's Land trenches of the Western Front,

Sam Mendes's gripping WWI epic, "1917", is presented here

in stunning black and white homage to Stanley Kubrick's

powerful, groundbreaking and influential masterpiece,

"Paths of Glory".



Subtitles available in English, Albanian, Arabic, Bengali,

Chinese, Croatian, Danish, Dutch, French, German, Greek,

Hebrew, Icelandic, Indonesian, Korean, Malay, Norwegian,

Persian, Polish, Portuguese, Romanian, Russian, Serbian,

Slovenian, Spanish, Swedish, Thai, Turkish and Vietnamese,

both embedded in the video and as external files.



Additional 5.1 Dolby Digital, 2.0 AAC and individual

featured commentary soundtracks with director/co-writer

Sam Mendes and director of photography Roger Deakins included.



Format                                   : Matroska

Format version                           : Version 4

File size                                : 15.3 GiB

Duration                                 : 1 h 58 min

Overall bit rate mode                    : Variable

Overall bit rate                         : 18.4 Mb/s

Movie name                               : 1917 (Paths of Glory Edition - Black and White) [2019] - 7.1 Dolby TrueHD Atmos 1080p H.264 [SexySadist]

Encoded date                             : UTC 2020-04-11 01:20:02

Writing application                      : mkvmerge v45.0.0 ('Heaven in Pennies') 64-bit

Writing library                          : libebml v1.3.10 + libmatroska v1.5.2



Video

ID                                       : 1

Format                                   : AVC

Format/Info                              : Advanced Video Codec

Format profile                           : [email protected]

Format settings                          : CABAC / 4 Ref Frames

Format settings, CABAC                   : Yes

Format settings, Reference frames        : 4 frames

Codec ID                                 : V_MPEG4/ISO/AVC

Duration                                 : 1 h 58 min

Bit rate                                 : 13.4 Mb/s

Width                                    : 1 920 pixels

Height                                   : 800 pixels

Display aspect ratio                     : 2.40:1

Frame rate mode                          : Constant

Frame rate                               : 23.976 (24000/1001) FPS

Color space                              : YUV

Chroma subsampling                       : 4:2:0

Bit depth                                : 8 bits

Scan type                                : Progressive

Bits/(Pixel*Frame)                       : 0.365

Stream size                              : 11.2 GiB (73%)

Title                                    : 1917 (Paths of Glory Edition - Black and White) [2019] - 7.1 Dolby TrueHD Atmos 1080p H.264 [SexySadist]

Language                                 : English

Default                                  : Yes

Forced                                   : No

Color range                              : Limited

Color primaries                          : BT.709

Transfer characteristics                 : BT.709

Matrix coefficients                      : BT.709



Audio #1

ID                                       : 2

Format                                   : MLP FBA 16-ch

Format/Info                              : Meridian Lossless Packing FBA with 16-channel presentation

Commercial name                          : Dolby TrueHD with Dolby Atmos

Codec ID                                 : A_TRUEHD

Duration                                 : 1 h 58 min

Bit rate mode                            : Variable

Bit rate                                 : 3 810 kb/s

Maximum bit rate                         : 7 158 kb/s

Channel(s)                               : 8 channels

Channel layout                           : L R C LFE Ls Rs Lb Rb

Sampling rate                            : 48.0 kHz

Frame rate                               : 1 200.000 FPS (40 SPF)

Compression mode                         : Lossless

Stream size                              : 3.17 GiB (21%)

Title                                    : 7.1 Dolby TrueHD Atmos Soundtrack

Language                                 : English

Default                                  : Yes

Forced                                   : No

Number of dynamic objects                : 11

Bed channel count                        : 1 channel

Bed channel configuration                : LFE



Audio #2

ID                                       : 3

Format                                   : AC-3

Format/Info                              : Audio Coding 3

Commercial name                          : Dolby Digital

Codec ID                                 : A_AC3

Duration                                 : 1 h 58 min

Bit rate mode                            : Constant

Bit rate                                 : 448 kb/s

Channel(s)                               : 6 channels

Channel layout                           : L R C LFE Ls Rs

Sampling rate                            : 48.0 kHz

Frame rate                               : 31.250 FPS (1536 SPF)

Compression mode                         : Lossy

Stream size                              : 381 MiB (2%)

Title                                    : 5.1 Dolby Digital Soundtrack

Language                                 : English

Service kind                             : Complete Main

Default                                  : No

Forced                                   : No



Audio #3

ID                                       : 4

Format                                   : AAC LC

Format/Info                              : Advanced Audio Codec Low Complexity

Codec ID                                 : A_AAC-2

Duration                                 : 1 h 58 min

Bit rate                                 : 192 kb/s

Channel(s)                               : 2 channels

Channel layout                           : L R

Sampling rate                            : 48.0 kHz

Frame rate                               : 46.875 FPS (1024 SPF)

Compression mode                         : Lossy

Stream size                              : 163 MiB (1%)

Title                                    : 2.0 AAC Soundtrack

Language                                 : English

Default                                  : No

Forced                                   : No



Audio #4

ID                                       : 5

Format                                   : AC-3

Format/Info                              : Audio Coding 3

Commercial name                          : Dolby Digital

Codec ID                                 : A_AC3

Duration                                 : 1 h 58 min

Bit rate mode                            : Constant

Bit rate                                 : 192 kb/s

Channel(s)                               : 2 channels

Channel layout                           : L R

Sampling rate                            : 48.0 kHz

Frame rate                               : 31.250 FPS (1536 SPF)

Compression mode                         : Lossy

Stream size                              : 163 MiB (1%)

Title                                    : Feature Commentary with Director/Co-Writer Sam Mendes

Language                                 : English

Service kind                             : Complete Main

Default                                  : No

Forced                                   : No



Audio #5

ID                                       : 6

Format                                   : AC-3

Format/Info                              : Audio Coding 3

Commercial name                          : Dolby Digital

Codec ID                                 : A_AC3

Duration                                 : 1 h 58 min

Bit rate mode                            : Constant

Bit rate                                 : 192 kb/s

Channel(s)                               : 2 channels

Channel layout                           : L R

Sampling rate                            : 48.0 kHz

Frame rate                               : 31.250 FPS (1536 SPF)

Compression mode                         : Lossy

Stream size                              : 163 MiB (1%)

Title                                    : Feature Commentary with Director of Photography Roger Deakins

Language                                 : English

Service kind                             : Complete Main

Default                                  : No

Forced                                   : No















































Discussion

Comments 0

Post Your Comment

Files in this torrent

FILENAMESIZE
1917 (Paths of Glory Edition - Black and White) [2019] - 7.1 Dolby TrueHD Atmos 1080p H.264 [SexySadist].mkv15.3 GB
1917 (Paths of Glory Edition - Black and White) [2019] - 7.1 Dolby TrueHD Atmos 1080p H.264 [SexySadist].nfo27.8 KB
Screenshots/1.png1 MB
Screenshots/10.png1.3 MB
Screenshots/11.png1.3 MB
Screenshots/12.png847.9 KB
Screenshots/2.png595.8 KB
Screenshots/3.png694.7 KB
Screenshots/4.png1009.6 KB
Screenshots/5.png1 MB
Screenshots/6.png841.8 KB
Screenshots/7.png944.8 KB
Screenshots/8.png736.5 KB
Screenshots/9.png1000.7 KB
Subtitles/Albanian.srt53.2 KB
Subtitles/Arabic.srt54.3 KB
Subtitles/Bengali.srt103.6 KB
Subtitles/Chinese.srt60.1 KB
Subtitles/Croatian.srt54 KB
Subtitles/Danish.srt52.4 KB
Subtitles/Dutch.srt54.1 KB
Subtitles/English.srt70.7 KB
Subtitles/French.srt65.4 KB
Subtitles/German.srt57.5 KB
Subtitles/Greek.srt72.3 KB
Subtitles/Hebrew.srt53.2 KB
Subtitles/Icelandic.srt64.9 KB
Subtitles/Indonesian.srt67.1 KB
Subtitles/Korean.srt67 KB
Subtitles/Malay.srt62.3 KB
Subtitles/Norwegian.srt51 KB
Subtitles/Persian.srt87.8 KB
Subtitles/Polish.srt51.4 KB
Subtitles/Portuguese.srt59.8 KB
Subtitles/Romanian.srt51.9 KB
Subtitles/Russian.srt77.7 KB
Subtitles/Serbian.srt55.1 KB
Subtitles/Slovenian.srt54.2 KB
Subtitles/Spanish.srt65.5 KB
Subtitles/Swedish.srt53.8 KB
Subtitles/Thai.srt94.4 KB
Subtitles/Turkish.srt54.4 KB
Subtitles/Vietnamese.srt72.4 KB

Alternative Torrents for 'Paths of Glory Edition Black and White Dolby TrueHD Atmos SexySadist'.

TORRENT NAMEADDEDSIZESEEDSPEERSHEALTH
4/11/202015.3 GB00