The Addams Family 2019 BDRip(AVC) 745Mb OlLanDGroup

Torrent Details


The Addams Family 2019 BDRip(AVC) 745Mb<span style=color:#fc9c6d> OlLanDGroup</span>

NAME
The Addams Family 2019 BDRip(AVC) 745Mb OlLanDGroup.torrent
CATEGORY
Anime
INFOHASH
06ef70a3295acf764a3eb2c17b073cca1a61b6da
SIZE
746 MB in 1 file
ADDED
Uploaded on 12-04-2020 by our crawler pet called "Spidey".
SWARM
2 seeders & 0 peers
RATING
No votes yet.

Please login to vote for this torrent.


Description

Информация

Название: Семейка Аддамс

Оригинальное название: The Addams Family

Год выпуска: 2019

Жанр: Мультфильм, ужасы, фэнтези, комедия, семейный

Режиссер: Грег Тирнан, Конрад Вернон

В ролях: Оскар Айзек, Шарлиз Терон, Хлоя Грейс Морец, Финн Вулфард, Ник Кролл, Снуп Догг, Бетт Мидлер, Эллисон Джэнни, Мартин Шорт, Кэтрин О`Хара



Описание:

Папа любит долгие прогулки в ненастную погоду. Мама считает, что черный цвет самый яркий. У детей кладбище - любимая площадка для игр. Бабушка выпивает пару капель яда перед сном. Вы все еще думаете, что ваши родственники странные? Знакомьтесь - семейка Аддамс.







Страна: Канада, США

Студия: Metro-Goldwyn-Mayer (MGM), Cinesite Animation

Продолжительность: 01:27:01

Перевод: Дублированный | Лицензия BD EUR



Файл

Формат: MKV

Качество: BDRip-AVC

Источник: |The.Addams.Family.2019.1080p.BluRay.REMUX.AVC.DTS-HD.MA.7.1-FGT|

Видео: 720x388 (1.85:1), 23.976 fps, x264 ~1004 kbps avg, 0.150 bit/pixel

Аудио: 48 kHz, AC3 Dolby Digital, 2/0 (L,R) ch, ~192 kbps | RUS

Субтитры: Русские (Forced, full), Английские (Full)



Релиз от:



MediaInfo:Format : Matroska

Format version : Version 4

File size : 746 MiB

Duration : 1 h 27 min

Overall bit rate : 1 198 kb/s

Movie name : Семейка Аддамс / The Addams Family (2019) BDRip(AVC) OlLanDGroup#Skandar

Encoded date : UTC 2020-04-12 08:41:48

Writing application : mkvmerge v31.0.0 ('Dolores In A Shoestand') 64-bit

Writing library : libebml v1.3.6 + libmatroska v1.4.9



Video

ID : 1

Format : AVC

Format/Info : Advanced Video Codec

Format profile : [email protected]

Format settings : CABAC / 10 Ref Frames

Format settings, CABAC : Yes

Format settings, ReFrames : 10 frames

Codec ID : V_MPEG4/ISO/AVC

Duration : 1 h 27 min

Bit rate : 1 004 kb/s

Width : 720 pixels

Height : 388 pixels

Display aspect ratio : 1.85:1

Frame rate mode : Constant

Frame rate : 23.976 (24000/1001) FPS

Color space : YUV

Chroma subsampling : 4:2:0

Bit depth : 8 bits

Scan type : Progressive

Bits/(Pixel*Frame) : 0.150

Stream size : 625 MiB (84%)

Title : Семейка Аддамс / The Addams Family (2019) BDRip(AVC) OlLanDGroup#Skandar

Writing library : x264 core 146 r2538 121396c

Encoding settings : cabac=1 / ref=10 / deblock=1:-3:-3 / analyse=0x3:0x133 / me=umh / subme=11 / psy=1 / psy_rd=0.97:0.05 / mixed_ref=1 / me_range=48 / chroma_me=1 / trellis=2 / 8x8dct=1 / cqm=0 / deadzone=21,11 / fast_pskip=0 / chroma_qp_offset=-3 / threads=6 / lookahead_threads=1 / sliced_threads=0 / nr=0 / decimate=0 / interlaced=0 / bluray_compat=0 / constrained_intra=0 / bframes=11 / b_pyramid=2 / b_adapt=2 / b_bias=0 / direct=3 / weightb=1 / open_gop=0 / weightp=2 / keyint=240 / keyint_min=23 / scenecut=40 / intra_refresh=0 / rc_lookahead=40 / rc=2pass / mbtree=0 / bitrate=1004 / ratetol=1.0 / qcomp=0.60 / qpmin=0 / qpmax=69 / qpstep=4 / cplxblur=20.0 / qblur=0.5 / vbv_maxrate=50000 / vbv_bufsize=62500 / nal_hrd=none / filler=0 / ip_ratio=1.40 / pb_ratio=1.30 / aq=1:1.00

Language : English

Default : Yes

Forced : No



Audio

ID : 2

Format : AC-3

Format/Info : Audio Coding 3

Commercial name : Dolby Digital

Codec ID : A_AC3

Duration : 1 h 27 min

Bit rate mode : Constant

Bit rate : 192 kb/s

Channel(s) : 2 channels

Channel layout : L R

Sampling rate : 48.0 kHz

Frame rate : 31.250 FPS (1536 SPF)

Bit depth : 16 bits

Compression mode : Lossy

Stream size : 120 MiB (16%)

Title : DUB | Лицензия [BD EUR]

Language : Russian

Service kind : Complete Main

Default : Yes

Forced : No



Text #1

ID : 3

Format : UTF-8

Codec ID : S_TEXT/UTF8

Codec ID/Info : UTF-8 Plain Text

Duration : 1 h 19 min

Bit rate : 1 b/s

Count of elements : 39

Stream size : 1.16 KiB (0%)

Title : Forced

Language : Russian

Default : Yes

Forced : No



Text #2

ID : 4

Format : UTF-8

Codec ID : S_TEXT/UTF8

Codec ID/Info : UTF-8 Plain Text

Duration : 1 h 19 min

Bit rate : 105 b/s

Count of elements : 1221

Stream size : 61.5 KiB (0%)

Title : Full

Language : Russian

Default : No

Forced : No



Text #3

ID : 5

Format : UTF-8

Codec ID : S_TEXT/UTF8

Codec ID/Info : UTF-8 Plain Text

Duration : 1 h 25 min

Bit rate : 69 b/s

Count of elements : 1436

Stream size : 43.3 KiB (0%)

Language : English

Default : No

Forced : No



Menu

00:00:00.000 : :Chapter 01

00:05:08.558 : :Chapter 02

00:10:35.468 : :Chapter 03

00:15:46.946 : :Chapter 04

00:19:35.257 : :Chapter 05

00:25:14.805 : :Chapter 06

00:29:25.764 : :Chapter 07

00:34:20.558 : :Chapter 08

00:39:46.968 : :Chapter 09

00:45:01.741 : :Chapter 10

00:49:07.611 : :Chapter 11

00:53:40.926 : :Chapter 12

00:56:36.560 : :Chapter 13

01:00:01.014 : :Chapter 14

01:03:45.947 : :Chapter 15

01:06:02.458 : :Chapter 16

01:10:54.584 : :Chapter 17

01:18:09.476 : :Chapter 18

01:20:21.316 : :Chapter 19

01:21:11.325 : :Chapter 20 Скриншоты



Discussion

Comments 0

Post Your Comment

Files in this torrent

FILENAMESIZE
The.Addams.Family.2019.BDRip(AVC).745Mb.OlLanDGroup.mkv745.8 MB

Alternative Torrents for 'Addams Family AVC Mb'.

There are no alternative torrents found.