The Addams Family 2019 Lic BDRip,2.18GB X264

Torrent Details


The Addams Family 2019 Lic BDRip,2.18GB x264

NAME
The Addams Family 2019 Lic BDRip,2.18GB x264.torrent
CATEGORY
Anime
INFOHASH
453a5c2d8d5e18212561b1d553d8bf45a2242c5c
SIZE
2.2 GB in 1 file
ADDED
Uploaded on 12-04-2020 by our crawler pet called "Spidey".
SWARM
0 seeders & 0 peers
RATING
This torrent has a bad rating! This torrent has BAD rating with 0 votes.

Please login to vote for this torrent.


Description

«Думаете, ваша семейка странная?»



Информация о фильме

Название: Семейка Аддамс

Оригинальное название: The Addams Family

Год выхода: 2019

Жанр: Мультфильм, ужасы, фэнтези, комедия, семейный

Режиссер: Грег Тирнан, Конрад Вернон

Роли озвучивают: Оскар Айзек, Шарлиз Терон, Хлоя Грейс Морец, Финн Вулфард, Ник Кролл, Снуп Догг, Бетт Мидлер, Эллисон Джэнни, Мартин Шорт, Кэтрин О`Хара



О фильме:

Папа любит долгие прогулки в ненастную погоду. Мама считает, что черный цвет самый яркий. У детей кладбище — любимая площадка для игр. Бабушка выпивает пару капель яда перед сном. Вы все еще думаете, что ваши родственники странные? Знакомьтесь — семейка Аддамс.







Страна: Канада, США

Студия: BermanBraun, Bron Creative, Bron Studios, Cinesite Animation, Creative Wealth Media Finance, Metro-Goldwyn-Mayer (MGM), Nitrogen Studios Canada

Продолжительность: 01:27:01

Перевод:

• Профессиональный (полное дублирование) | Blu-ray EUR

• Авторский (одноголосый, закадровый) | Яроцкий



Файл

Качество: BDRip-AVC (исх. The Addams Family 2019 1080p BluRay REMUX AVC DTS-HD MA7 1-iFT)

Формат: MKV

Кодек: MPEG-4 AVC

Видео: 1024x552 (1,85:1), 23,976 fps, MPEG-4 AVC ~ 2237 Kbps avg, 0.165 bit/pixel

Аудио: AC3, 48 kHz, 6 ch, ~448.00 kbps avg | русский | Blu-ray EUR

Аудио: AC3, 48 kHz, 6 ch, ~448.00 kbps avg | русский | Яроцкий

Аудио: AC3, 48 kHz, 6 ch, ~448.00 kbps avg | английский | Оригинал

Субтитры: Русские (3 x Forced, full), украинские (Forced), английские



Инфо-файлОбщее

Уникальный идентификатор : 54875211615641838632104069367059255894 (0x294894D1BFBBA2B2C64C9DB7EF311256)

Полное имя : The.Addams.Family.2019.Lic.BDRip,2.18Gb.x264.mkv

Формат : Matroska

Версия формата : Version 4

Размер файла : 2,18 Гбайт

Продолжительность : 1 ч. 27 м.

Общий поток : 3585 Кбит/сек

Название фильма : Семейка Аддамс / The Addams Family (2019)

Дата кодирования : UTC 2020-04-12 15:22:23

Программа кодирования : mkvmerge v41.0.0 ('Smarra') 64-bit

Библиотека кодирования : libebml v1.3.9 + libmatroska v1.5.2

Обложка : Yes

Attachments : cover.jpg



Видео

Идентификатор : 1

Формат : AVC

Формат/Информация : Advanced Video Codec

Профиль формата : [email protected]

Настройки формата : CABAC / 10 Ref Frames

Параметр CABAC формата : Да

Параметр RefFrames формата : 10 кадров

Идентификатор кодека : V_MPEG4/ISO/AVC

Продолжительность : 1 ч. 27 м.

Битрейт : 2237 Кбит/сек

Ширина : 1024 пикселя

Высота : 552 пикселя

Соотношение сторон : 1,85:1

Режим частоты кадров : Постоянный

Частота кадров : 23,976 кадра/сек

Цветовое пространство : YUV

Субдискретизация насыщенности : 4:2:0

Битовая глубина : 8 бит

Тип развёртки : Прогрессивная

Бит/(Пиксели*Кадры) : 0.165

Размер потока : 1,36 Гбайт (62%)

Заголовок : #stillet

Библиотека кодирования : x264 core 152 r2851bm ba24899

Настройки программы : cabac=1 / ref=10 / deblock=1:-3:-3 / analyse=0x3:0x113 / me=umh / subme=11 / psy=1 / psy_rd=1.00:0.15 / mixed_ref=1 / me_range=32 / chroma_me=1 / trellis=2 / 8x8dct=1 / cqm=0 / deadzone=21,11 / fast_pskip=0 / chroma_qp_offset=-3 / threads=8 / lookahead_threads=3 / sliced_threads=0 / nr=0 / decimate=0 / interlaced=0 / bluray_compat=0 / constrained_intra=0 / bframes=10 / b_pyramid=2 / b_adapt=2 / b_bias=0 / direct=3 / weightb=1 / open_gop=0 / weightp=2 / keyint=240 / keyint_min=23 / scenecut=40 / intra_refresh=0 / rc=2pass / mbtree=0 / bitrate=2237 / ratetol=1.0 / qcomp=0.60 / qpmin=0 / qpmax=69 / qpstep=4 / cplxblur=20.0 / qblur=0.5 / ip_ratio=1.40 / pb_ratio=1.30 / aq=1:1.00

Язык : English

Default : Да

Forced : Нет



Аудио #1

Идентификатор : 2

Формат : AC-3

Формат/Информация : Audio Coding 3

Коммерческое название : Dolby Digital

Идентификатор кодека : A_AC3

Продолжительность : 1 ч. 27 м.

Вид битрейта : Постоянный

Битрейт : 448 Кбит/сек

Каналы : 6 каналов

ChannelLayout : L R C LFE Ls Rs

Частота : 48,0 КГц

Частота кадров : 31,250 кадров/сек (1536 SPF)

Метод сжатия : С потерями

Размер потока : 279 Мбайт (12%)

Заголовок : Blu-ray EUR

Язык : Russian

Default : Да

Forced : Нет



Аудио #2

Идентификатор : 3

Формат : AC-3

Формат/Информация : Audio Coding 3

Коммерческое название : Dolby Digital

Идентификатор кодека : A_AC3

Продолжительность : 1 ч. 27 м.

Вид битрейта : Постоянный

Битрейт : 448 Кбит/сек

Каналы : 6 каналов

ChannelLayout : L R C LFE Ls Rs

Частота : 48,0 КГц

Частота кадров : 31,250 кадров/сек (1536 SPF)

Метод сжатия : С потерями

Размер потока : 279 Мбайт (12%)

Заголовок : AVO | Яроцкий

Язык : Russian

Default : Нет

Forced : Нет



Аудио #3

Идентификатор : 4

Формат : AC-3

Формат/Информация : Audio Coding 3

Коммерческое название : Dolby Digital

Идентификатор кодека : A_AC3

Продолжительность : 1 ч. 27 м.

Вид битрейта : Постоянный

Битрейт : 448 Кбит/сек

Каналы : 6 каналов

ChannelLayout : L R C LFE Ls Rs

Частота : 48,0 КГц

Частота кадров : 31,250 кадров/сек (1536 SPF)

Метод сжатия : С потерями

Размер потока : 279 Мбайт (12%)

Язык : English

Default : Нет

Forced : Нет



Текст #1

Идентификатор : 5

Формат : UTF-8

Идентификатор кодека : S_TEXT/UTF8

Идентификатор кодека/Информация : UTF-8 Plain Text

Продолжительность : 1 ч. 25 м.

Битрейт : 9 бит/сек

ElementCount : 136

Размер потока : 6,19 Кбайт (0%)

Заголовок : Forced [BD EUR]

Язык : Russian

Default : Да

Forced : Да



Текст #2

Идентификатор : 6

Формат : UTF-8

Идентификатор кодека : S_TEXT/UTF8

Идентификатор кодека/Информация : UTF-8 Plain Text

Продолжительность : 1 ч. 19 м.

Битрейт : 1 бит/сек

ElementCount : 39

Размер потока : 1,16 Кбайт (0%)

Заголовок : Forced [iTunes]

Язык : Russian

Default : Нет

Forced : Нет



Текст #3

Идентификатор : 7

Формат : UTF-8

Идентификатор кодека : S_TEXT/UTF8

Идентификатор кодека/Информация : UTF-8 Plain Text

Продолжительность : 53 м. 24 с.

Битрейт : 7 бит/сек

ElementCount : 56

Размер потока : 2,81 Кбайт (0%)

Заголовок : Songs (Kyberpunk)

Язык : Russian

Default : Нет

Forced : Нет



Текст #4

Идентификатор : 8

Формат : UTF-8

Идентификатор кодека : S_TEXT/UTF8

Идентификатор кодека/Информация : UTF-8 Plain Text

Продолжительность : 1 ч. 19 м.

Битрейт : 105 бит/сек

ElementCount : 1221

Размер потока : 61,5 Кбайт (0%)

Заголовок : Full

Язык : Russian

Default : Нет

Forced : Нет



Текст #5

Идентификатор : 9

Формат : UTF-8

Идентификатор кодека : S_TEXT/UTF8

Идентификатор кодека/Информация : UTF-8 Plain Text

Продолжительность : 1 ч. 19 м.

Битрейт : 1 бит/сек

ElementCount : 25

Размер потока : 775 байт (0%)

Заголовок : Forced

Язык : Ukrainian

Default : Нет

Forced : Нет



Текст #6

Идентификатор : 10

Формат : UTF-8

Идентификатор кодека : S_TEXT/UTF8

Идентификатор кодека/Информация : UTF-8 Plain Text

Продолжительность : 1 ч. 25 м.

Битрейт : 69 бит/сек

ElementCount : 1436

Размер потока : 43,3 Кбайт (0%)

Заголовок : Full

Язык : English

Default : Нет

Forced : Нет



Меню

00:00:00.000 : :Chapter 01

00:05:08.558 : :Chapter 02

00:10:35.468 : :Chapter 03

00:15:46.946 : :Chapter 04

00:19:35.257 : :Chapter 05

00:25:14.805 : :Chapter 06

00:29:25.764 : :Chapter 07

00:34:20.558 : :Chapter 08

00:39:46.968 : :Chapter 09

00:45:01.741 : :Chapter 10

00:49:07.611 : :Chapter 11

00:53:40.926 : :Chapter 12

00:56:36.560 : :Chapter 13

01:00:01.014 : :Chapter 14

01:03:45.947 : :Chapter 15

01:06:02.458 : :Chapter 16

01:10:54.584 : :Chapter 17

01:18:09.476 : :Chapter 18

01:20:21.316 : :Chapter 19

01:21:11.325 : :Chapter 20

Скриншоты

Discussion

Comments 0

Post Your Comment

Files in this torrent

FILENAMESIZE
The.Addams.Family.2019.Lic.BDRip,2.18Gb.x264.mkv2.2 GB

Alternative Torrents for 'Addams Family Lic'.

TORRENT NAMEADDEDSIZESEEDSPEERSHEALTH
4/12/20202.2 GB00
4/12/20208.1 GB00
4/12/20203.7 GB00
4/12/202048.3 GB00
4/12/202024.3 GB00