Bad Boys For Life (2020) BDRip-HEVC 1080p от HEVC-CLUB

Torrent Details

Bad Boys for Life (2020) BDRip-HEVC 1080p от HEVC-CLUB
Bad Boys for Life (2020) BDRip-HEVC 1080p от HEVC-CLUB

NAME
Bad Boys for Life (2020) BDRip-HEVC 1080p от HEVC-CLUB.torrent
CATEGORY
Movies
INFOHASH
2c770934bf4a7372a7d759f10cc52b469f8d9318
SIZE
8.7 GB in 0 files
ADDED
Uploaded on 13-04-2020 by our crawler pet called "Spidey".
SWARM
0 seeders & 0 peers
RATING
No votes yet.

Please login to vote for this torrent.


Description

Информация о фильме

Год выхода: 2020

Страна: США, Мексика

Студия: Columbia Pictures, 2.0 Entertainment, Columbia Pictures Mexico

Жанр: Боевик, триллер, комедия, криминал

Продолжительность: 02:03:58



Режиссер: Адиль Эль Арби, Билал Фалла

В ролях: Уилл Смит, Мартин Лоуренс, Александр Людвиг, Ванесса Энн Хадженс, Майкл Бэй, Джо Пантолиано, Паола Нуньес, Чарльз Мелтон, Кейт дель Кастильо, Ники Джем, Джейкоб Скипио



Описание: Детективы Майк Лоури и Маркус Бёрнетт снова в деле! Правда, их отстраняют от всех операций, но разве отчаянных друзей когда-нибудь что-либо останавливало? Ведь на этот раз на Майка открывает охоту некто из его прошлой жизни. Так что парням придется отжечь по полной!







Файл

Качество: BDRip-HEVC 1080p

Видео: HEVC/x.265, 1920x804, ~8878 Kbps

Аудио 1: AC3, 6 ch, 384 Kbps - Русский, дублированный (iTunes)

Аудио 2: AC3, 2 ch, 192 Kbps - Украинский, дублированный (iTunes)

Аудио 3: AC3, 6 ch, 448 Kbps - Английский

Субтитры: Русские (Forced, Full), Украинские (Forced, Full), Английские



Mediainfo

General

Unique ID : 186386543744757729520728493327568831230 (0x8C38BE19E97E632D60D93C7668BB82FE)

Complete name : D:Bad Boys for Life (2020) BDRip-HEVC 1080p от HEVC-CLUB.mkv

Format : Matroska

Format version : Version 4

File size : 8.75 GiB

Duration : 2 h 3 min

Overall bit rate : 10.1 Mb/s

Movie name : Плохие парни навсегда

Writing application : XviD4PSP 7.0.501 PRO

Writing library : Lavf57.71.100

ErrorDetectionType : Per level 1

Attachments : poster.jpg

ACTORS : Уилл Смит, Мартин Лоуренс,

COUNTRY : США

DATE : 2020

DIRECTOR : Адиль Эль Арби

ENCODING_INFO : MATROSKA,WEBM > MKV Пользовательский / H264 > X265 CRF 18.0 Medium / AC3 > AC3 CBR 384kbps / AC3 > AC3 CBR 192kbps / DTS-HD MA > AC3 CBR 448kbps

GENRE : боевик, триллер, комедия

HD_VIDEO : 1

Language : und

MEDIA_TYPE : 9

ORIGINAL_TITLE : Bad Boys for Life



Video

ID : 1

Format : HEVC

Format/Info : High Efficiency Video Coding

Format profile : Main [email protected]@High

Codec ID : V_MPEGH/ISO/HEVC

Duration : 2 h 3 min

Bit rate : 8 878 kb/s

Width : 1 920 pixels

Height : 804 pixels

Display aspect ratio : 2.40:1

Frame rate mode : Constant

Frame rate : 23.976 (24000/1001) FPS

Color space : YUV

Chroma subsampling : 4:2:0

Bit depth : 10 bits

Bits/(Pixel*Frame) : 0.240

Stream size : 7.69 GiB (88%)

Writing library : x265 3.1+7-147fb92c5ed5:[Windows][clang 8.0.0][64 bit] 10bit

Encoding settings : cpuid=1111039 / frame-threads=13 / wpp / no-pmode / no-pme / no-psnr / no-ssim / log-level=3 / input-csp=1 / input-res=1920x804 / interlace=0 / total-frames=0 / level-idc=41 / high-tier=1 / uhd-bd=0 / ref=5 / allow-non-conformance / no-repeat-headers / annexb / no-aud / no-hrd / info / hash=0 / no-temporal-layers / open-gop / min-keyint=23 / keyint=240 / gop-lookahead=0 / bframes=8 / b-adapt=2 / b-pyramid / bframe-bias=0 / rc-lookahead=60 / lookahead-slices=4 / scenecut=60 / radl=0 / no-splice / no-intra-refresh / ctu=64 / min-cu-size=8 / rect / amp / max-tu-size=32 / tu-inter-depth=4 / tu-intra-depth=4 / limit-tu=4 / rdoq-level=2 / dynamic-rd=0.00 / no-ssim-rd / signhide / no-tskip / nr-intra=0 / nr-inter=0 / no-constrained-intra / no-strong-intra-smoothing / max-merge=5 / limit-refs=1 / limit-modes / me=3 / subme=7 / merange=57 / temporal-mvp / no-hme / weightp / weightb / no-analyze-src-pics / deblock=-3:-3 / no-sao / no-sao-non-deblock / rd=6 / no-early-skip / no-rskip / no-fast-intra / no-tskip-fast / no-cu-lossless / b-intra / no-splitrd-skip / rdpenalty=0 / psy-rd=2.00 / psy-rdoq=1.00 / no-rd-refine / no-lossless / cbqpoffs=0 / crqpoffs=0 / rc=crf / crf=18.0 / qcomp=0.60 / qpstep=4 / stats-write=0 / stats-read=0 / vbv-maxrate=50000 / vbv-bufsize=50000 / vbv-init=0.9 / crf-max=30.0 / crf-min=0.0 / ipratio=1.40 / pbratio=1.30 / aq-mode=2 / aq-strength=1.00 / no-cutree / zone-count=0 / no-strict-cbr / qg-size=32 / no-rc-grain / qpmax=69 / qpmin=0 / no-const-vbv / sar=1 / overscan=0 / videoformat=5 / range=0 / colorprim=1 / transfer=1 / colormatrix=1 / chromaloc=0 / display-window=0cll=0,0 / min-luma=0 / max-luma=1023 / log2-max-poc-lsb=8 / vui-timing-info / vui-hrd-info / slices=1 / no-opt-qp-pps / no-opt-ref-list-length-pps / no-multi-pass-opt-rps / scenecut-bias=0.05 / no-opt-cu-delta-qp / no-aq-motion / no-hdr / no-hdr-opt / no-dhdr10-opt / no-idr-recovery-sei / analysis-reuse-level=5 / scale-factor=0 / refine-intra=0 / refine-inter=0 / refine-mv=0 / refine-ctu-distortion=0 / no-limit-sao / ctu-info=0 / no-lowpass-dct / refine-analysis-type=23265929 / copy-pic=1 / max-ausize-factor=1.0 / no-dynamic-refine / no-single-sei / no-hevc-aq / no-svt / no-field / qp-adaptation-range=1.00

Language : English

Default : Yes

Forced : No

Color range : Limited

Color primaries : BT.709

Transfer characteristics : BT.709

Matrix coefficients : BT.709



Audio #1

ID : 2

Format : AC-3

Format/Info : Audio Coding 3

Commercial name : Dolby Digital

Codec ID : A_AC3

Duration : 2 h 3 min

Bit rate mode : Constant

Bit rate : 384 kb/s

Channel(s) : 6 channels

Channel layout : L R C LFE Ls Rs

Sampling rate : 48.0 kHz

Frame rate : 31.250 FPS (1536 SPF)

Bit depth : 32 bits

Compression mode : Lossy

Stream size : 341 MiB (4%)

Title : Dub [iTunes]

Language : Russian

Service kind : Complete Main

Default : Yes

Forced : Yes



Audio #2

ID : 3

Format : AC-3

Format/Info : Audio Coding 3

Commercial name : Dolby Digital

Codec ID : A_AC3

Duration : 2 h 3 min

Bit rate mode : Constant

Bit rate : 192 kb/s

Channel(s) : 2 channels

Channel layout : L R

Sampling rate : 48.0 kHz

Frame rate : 31.250 FPS (1536 SPF)

Bit depth : 32 bits

Compression mode : Lossy

Stream size : 170 MiB (2%)

Title : iTunes

Language : Ukrainian

Service kind : Complete Main

Default : Yes

Forced : No



Audio #3

ID : 4

Format : AC-3

Format/Info : Audio Coding 3

Commercial name : Dolby Digital

Codec ID : A_AC3

Duration : 2 h 3 min

Bit rate mode : Constant

Bit rate : 448 kb/s

Channel(s) : 6 channels

Channel layout : L R C LFE Ls Rs

Sampling rate : 48.0 kHz

Frame rate : 31.250 FPS (1536 SPF)

Bit depth : 16 bits

Compression mode : Lossy

Stream size : 397 MiB (4%)

Title : Original

Language : English

Service kind : Complete Main

Default : No

Forced : No



Text #1

ID : 5

Format : UTF-8

Codec ID : S_TEXT/UTF8

Codec ID/Info : UTF-8 Plain Text

Title : Forced

Language : Russian

Default : Yes

Forced : Yes



Text #2

ID : 6

Format : UTF-8

Codec ID : S_TEXT/UTF8

Codec ID/Info : UTF-8 Plain Text

Title : Full

Language : Russian

Default : Yes

Forced : No



Text #3

ID : 7

Format : UTF-8

Codec ID : S_TEXT/UTF8

Codec ID/Info : UTF-8 Plain Text

Title : Forced

Language : Ukrainian

Default : No

Forced : No



Text #4

ID : 8

Format : UTF-8

Codec ID : S_TEXT/UTF8

Codec ID/Info : UTF-8 Plain Text

Title : Full

Language : Ukrainian

Default : No

Forced : No



Text #5

ID : 9

Format : UTF-8

Codec ID : S_TEXT/UTF8

Codec ID/Info : UTF-8 Plain Text

Language : English

Default : No

Forced : No



Menu

00:00:00.000 : :CapĂ­tulo 01

00:07:33.202 : :CapĂ­tulo 02

00:14:56.645 : :CapĂ­tulo 03

00:23:43.255 : :CapĂ­tulo 04

00:31:05.613 : :CapĂ­tulo 05

00:38:43.070 : :CapĂ­tulo 06

00:45:26.348 : :CapĂ­tulo 07

00:53:27.329 : :CapĂ­tulo 08

01:00:22.035 : :CapĂ­tulo 09

01:07:29.253 : :CapĂ­tulo 10

01:12:55.162 : :CapĂ­tulo 11

01:22:12.344 : :CapĂ­tulo 12

01:29:49.092 : :CapĂ­tulo 13

01:36:47.802 : :CapĂ­tulo 14

01:42:08.580 : :CapĂ­tulo 15

01:53:55.912 : :CapĂ­tulo 16

Скриншоты





Релиз от: HANNIBAL

Discussion

Comments 0

Post Your Comment

Torrent Files (Unavailable)

Please check back later to get a list of all files included in this torrent.

Alternative Torrents for 'Bad Boys for Life HEVC от HEVCCLUB'.

TORRENT NAMEADDEDSIZESEEDSPEERSHEALTH
8/3/2020797 MB37212463
8/3/20201.4 GB36982456
8/3/2020387 MB36942463
8/4/2020375 MB36832454
8/3/202026 MB36752445
8/3/2020699 MB36732449
8/7/20205.3 GB1663387
8/7/2020797 MB1154888
8/7/20201 GB756714
8/7/20202.1 GB745818
8/7/20201.1 GB685168
8/6/20201.3 GB58939
8/6/2020610 MB53239
8/2/2020942 MB456204
8/6/2020109 MB40922