Fantasy Island 2020 WEB-DLRip L1 AntoXa

Torrent Details

Fantasy Island 2020 WEB-DLRip L1 AntoXa
Fantasy Island 2020 WEB-DLRip L1 AntoXa

NAME
Fantasy Island 2020 WEB-DLRip L1 AntoXa.torrent
CATEGORY
Movies
INFOHASH
8b6c1fe6455b986aef83322111245964e7b8c0fe
SIZE
1.4 GB in 1 file
ADDED
Uploaded on 14-04-2020 by our crawler pet called "Spidey".
SWARM
0 seeders & 0 peers
RATING
No votes yet.

Please login to vote for this torrent.


Description

Информация о фильме

Название: Остров фантазий

Оригинальное название: Fantasy Island

Год выхода: 2020

Жанр: Ужасы, триллер, фантастика

Режиссер: Джефф Уодлоу

В ролях: Майкл Пенья, Мэгги Кью, Люси Хейл, Остин Стоуэлл, Портия Даблдэй, Джимми О. Ян, Райан Хансен, Майкл Рукер, Париса Фитц-Хенли, Майк Фогель



О фильме:

Загадочный мистер Рорк воплощает в жизнь самые смелые и тайные мечты своих постояльцев на роскошном труднодоступном тропическом курорте. Но будут ли готовы гости разгадать тайну острова и спасти свои жизни, когда их фантазии обернутся кошмаром?







Страна: США

Студия: Blumhouse Productions, Columbia Pictures Corporation

Продолжительность: 01:49:23

Перевод: Любительский (одноголосый закадровый) Антон Кудрявцев



Файл

Кодек: AVI

Качество: WEB-DLRip

Видео: AVI, XviD, 720x304, 1 583 kb/s

Звук: AC-3, 48.0 kHz, 2 ch, 192 kb/s

Субтитры: Отсутствуют



Семпл

MediaInfo:General

Complete name : C:UsersUserDesktopFantasy.Island.2020.WEB-DLRip.L1.AntoXa.avi

Format : AVI

Format/Info : Audio Video Interleave

File size : 1.36 GiB

Duration : 1 h 49 min

Overall bit rate : 1 784 kb/s

Writing application : VirtualDubMod 1.5.10.3 | www.virtualdub-fr.org || (build 2550/release)

Writing library : VirtualDubMod build 2550/release



Video

ID : 0

Format : MPEG-4 Visual

Format profile : Advanced [email protected]

Format settings : BVOP1

Format settings, BVOP : 1

Format settings, QPel : No

Format settings, GMC : No warppoints

Format settings, Matrix : Default (MPEG)

Codec ID : XVID

Codec ID/Hint : XviD

Duration : 1 h 49 min

Bit rate : 1 583 kb/s

Width : 720 pixels

Height : 304 pixels

Display aspect ratio : 2.35:1

Frame rate : 23.976 (24000/1001) FPS

Color space : YUV

Chroma subsampling : 4:2:0

Bit depth : 8 bits

Scan type : Progressive

Compression mode : Lossy

Bits/(Pixel*Frame) : 0.302

Stream size : 1.21 GiB (89%)

Writing library : XviD 1.2.1 (UTC 2008-12-04)



Audio

ID : 1

Format : AC-3

Format/Info : Audio Coding 3

Commercial name : Dolby Digital

Codec ID : 2000

Duration : 1 h 49 min

Bit rate mode : Constant

Bit rate : 192 kb/s

Channel(s) : 2 channels

Channel layout : L R

Sampling rate : 48.0 kHz

Frame rate : 31.250 FPS (1536 SPF)

Bit depth : 16 bits

Compression mode : Lossy

Stream size : 150 MiB (11%)

Alignment : Split across interleaves

Interleave, duration : 42 ms (1.00 video frame)

Interleave, preload duratio : 500 ms

Service kind : Complete Main



Скриншоты

Discussion

Comments 0

Post Your Comment

Files in this torrent

FILENAMESIZE
Fantasy.Island.2020.WEB-DLRip.L1.AntoXa.avi1.4 GB

Alternative Torrents for 'Fantasy Island DLRip AntoXa'.

TORRENT NAMEADDEDSIZESEEDSPEERSHEALTH
4/14/20201.4 GB00