Bad Boys For Life 2020 BDRip 1080p W

Torrent Details

Bad Boys for Life 2020 BDRip 1080p W
Bad Boys for Life 2020 BDRip 1080p W

NAME
Bad Boys for Life 2020 BDRip 1080p W.torrent
CATEGORY
Movies
INFOHASH
4cb618760e39d7010f72d75d40e833d5d0bf6c85
SIZE
10.3 GB in 1 file
ADDED
Uploaded on 16-04-2020 by our crawler pet called "Spidey".
SWARM
0 seeders & 0 peers
RATING
No votes yet.

Please login to vote for this torrent.


Description

Информация о фильме

Название: Плохие парни навсегда

Оригинальное название: Bad Boys for Life

Год выхода: 2020

Жанр: Боевик, Триллер, Комедия, Криминал

Режиссер: Адиль Эль Арби, Билал Фалла

В ролях: Уилл Смит, Мартин Лоуренс, Ванесса Энн Хадженс, Александр Людвиг, Чарльз Мелтон, Паола Нуньес, Кейт дель Кастильо, Ники Джем, Джо Пантольяно, Джейкоб Скип



О фильме:

Детективы Майк Лоури и Маркус Бёрнетт снова в деле! Правда, их отстраняют от всех операций, но разве отчаянных друзей когда-нибудь что-либо останавливало? Ведь на этот раз на Майка открывает охоту некто из его прошлой жизни. Так что парням придется отжечь по полной!







Страна: США, Мексика

Студия: Columbia Pictures, 2.0 Entertainment, Columbia Pictures Mexico, Don Simpson/Jerry Bruckheimer Films, Overbrook Entertainment

Продолжительность: 02:03:58

Перевод: Дублированный (iTunes + вставки MVO HDrezka на испанскую речь), Дублированный (iTunes), Профессиональный (многоголосый), Авторский (одноголосый)



Файл

Качество: BDRip 1080p

Видео: AVC/H.264, 1920x802, ~8350 Кbps, 23,976 fps

Звук:

Аудио 1: AC3, 6 ch, 384 Kbps - Русский (DUB + MVO HDrezka Studio)

Аудио 2: AC3, 6 ch, 384 Kbps - Русский (DUB)

Аудио 3: AC3, 6 ch, 448 Kbps - Русский (MVO HDrezka Studio)

Аудио 4: AC3, 6 ch, 640 Kbps - Русский (AVO М.Яроцкий)

Аудио 5: AC3, 2 ch, 192 Kbps - Украинский (DUB)

Аудио 6: DTS, 6 ch, 1509 Kbps - Английский

Субтитры: Русские (Forced, Full), Украинские (Forced, Full), Английские (Forced, Full, SDH)



MediainfoОбщее

Уникальный идентификатор : 202682816565020216023288878370798106640 (0x987B4A625F225DEACA2EC55D7FB2F810)

Полное имя : Bad Boys for Life.2020.BDRip.1080p.mkv

Формат : Matroska

Версия формата : Version 4

Размер файла : 10,3 Гбайт

Продолжительность : 2 ч. 3 м.

Общий поток : 11,9 Мбит/сек

Название фильма : Bad Boys for Life.2020.BDRip.1080p.W

Дата кодирования : UTC 2020-04-16 16:39:06

Программа кодирования : mkvmerge v23.0.0 ('The Bride Said No') 64-bit

Библиотека кодирования : libebml v1.3.6 + libmatroska v1.4.9



Видео

Идентификатор : 1

Формат : AVC

Формат/Информация : Advanced Video Codec

Профиль формата : [email protected]

Настройки формата : CABAC / 5 Ref Frames

Параметр CABAC формата : Да

Параметр RefFrames формата : 5 кадров

Идентификатор кодека : V_MPEG4/ISO/AVC

Продолжительность : 2 ч. 3 м.

Битрейт : 8 350 Кбит/сек

Ширина : 1 920 пикселей

Высота : 802 пикселя

Соотношение сторон : 2,40:1

Режим частоты кадров : Постоянный

Частота кадров : 23,976 (23976/1000) кадра/сек

Цветовое пространство : YUV

Субдискретизация насыщенности : 4:2:0

Битовая глубина : 8 бит

Тип развёртки : Прогрессивная

Бит/(Пиксели*Кадры) : 0.226

Размер потока : 7,23 Гбайт (70%)

Заголовок : rip by -=walledol=-

Библиотека кодирования : x264 core 159 r2991 1771b55

Настройки программы : cabac=1 / ref=5 / deblock=1:-3:-3 / analyse=0x3:0x133 / me=umh / subme=11 / psy=1 / psy_rd=1.00:0.00 / mixed_ref=1 / me_range=32 / chroma_me=1 / trellis=2 / 8x8dct=1 / cqm=0 / deadzone=21,11 / fast_pskip=0 / chroma_qp_offset=-2 / threads=12 / lookahead_threads=2 / sliced_threads=0 / nr=0 / decimate=1 / interlaced=0 / bluray_compat=0 / constrained_intra=0 / bframes=9 / b_pyramid=2 / b_adapt=2 / b_bias=0 / direct=3 / weightb=1 / open_gop=0 / weightp=2 / keyint=240 / keyint_min=23 / scenecut=40 / intra_refresh=0 / rc_lookahead=60 / rc=2pass / mbtree=0 / bitrate=8350 / ratetol=1.0 / qcomp=0.60 / qpmin=0 / qpmax=69 / qpstep=4 / cplxblur=20.0 / qblur=0.5 / vbv_maxrate=30000 / vbv_bufsize=33000 / nal_hrd=none / filler=0 / ip_ratio=1.40 / pb_ratio=1.30 / aq=3:0.80

Язык : English

Default : Да

Forced : Нет



Аудио #1

Идентификатор : 2

Формат : AC-3

Формат/Информация : Audio Coding 3

Коммерческое название : Dolby Digital

Идентификатор кодека : A_AC3

Продолжительность : 2 ч. 3 м.

Вид битрейта : Постоянный

Битрейт : 384 Кбит/сек

Каналы : 6 каналов

Channel layout : L R C LFE Ls Rs

Частота : 48,0 КГц

Частота кадров : 31,250 кадров/сек (1536 SPF)

Метод сжатия : С потерями

Размер потока : 340 Мбайт (3%)

Заголовок : DUB (iTunes)+MVO (HDRezka)

Язык : Russian

Service kind : Complete Main

Default : Да

Forced : Нет



Аудио #2

Идентификатор : 3

Формат : AC-3

Формат/Информация : Audio Coding 3

Коммерческое название : Dolby Digital

Идентификатор кодека : A_AC3

Продолжительность : 2 ч. 3 м.

Вид битрейта : Постоянный

Битрейт : 384 Кбит/сек

Каналы : 6 каналов

Channel layout : L R C LFE Ls Rs

Частота : 48,0 КГц

Частота кадров : 31,250 кадров/сек (1536 SPF)

Метод сжатия : С потерями

Размер потока : 340 Мбайт (3%)

Заголовок : DUB (iTunes)

Язык : Russian

Service kind : Complete Main

Default : Нет

Forced : Нет



Аудио #3

Идентификатор : 4

Формат : AC-3

Формат/Информация : Audio Coding 3

Коммерческое название : Dolby Digital

Идентификатор кодека : A_AC3

Продолжительность : 2 ч. 3 м.

Вид битрейта : Постоянный

Битрейт : 448 Кбит/сек

Каналы : 6 каналов

Channel layout : L R C LFE Ls Rs

Частота : 48,0 КГц

Частота кадров : 31,250 кадров/сек (1536 SPF)

Метод сжатия : С потерями

Размер потока : 397 Мбайт (4%)

Заголовок : MVO | HDRezka Studio

Язык : Russian

Service kind : Complete Main

Default : Нет

Forced : Нет



Аудио #4

Идентификатор : 5

Формат : AC-3

Формат/Информация : Audio Coding 3

Коммерческое название : Dolby Digital

Идентификатор кодека : A_AC3

Продолжительность : 2 ч. 3 м.

Вид битрейта : Постоянный

Битрейт : 640 Кбит/сек

Каналы : 6 каналов

Channel layout : L R C LFE Ls Rs

Частота : 48,0 КГц

Частота кадров : 31,250 кадров/сек (1536 SPF)

Метод сжатия : С потерями

Размер потока : 568 Мбайт (5%)

Заголовок : AVO М.Яроцкий

Язык : Russian

Service kind : Complete Main

Default : Нет

Forced : Нет



Аудио #5

Идентификатор : 6

Формат : AC-3

Формат/Информация : Audio Coding 3

Коммерческое название : Dolby Digital

Идентификатор кодека : A_AC3

Продолжительность : 2 ч. 3 м.

Вид битрейта : Постоянный

Битрейт : 192 Кбит/сек

Каналы : 2 канала

Channel layout : L R

Частота : 48,0 КГц

Частота кадров : 31,250 кадров/сек (1536 SPF)

Метод сжатия : С потерями

Размер потока : 170 Мбайт (2%)

Язык : Ukrainian

Service kind : Complete Main

Default : Нет

Forced : Нет



Аудио #6

Идентификатор : 7

Формат : DTS

Формат/Информация : Digital Theater Systems

Идентификатор кодека : A_DTS

Продолжительность : 2 ч. 3 м.

Вид битрейта : Постоянный

Битрейт : 1 509 Кбит/сек

Каналы : 6 каналов

Channel layout : C L R Ls Rs LFE

Частота : 48,0 КГц

Частота кадров : 93,750 кадра/сек (512 SPF)

Битовая глубина : 24 бит

Метод сжатия : С потерями

Размер потока : 1,31 Гбайт (13%)

Заголовок : English

Язык : English

Default : Нет

Forced : Нет



Текст #1

Идентификатор : 8

Формат : UTF-8

Идентификатор кодека : S_TEXT/UTF8

Идентификатор кодека/Информация : UTF-8 Plain Text

Продолжительность : 1 ч. 46 м.

Битрейт : 1 бит/сек

Count of elements : 20

Размер потока : 841 байт (0%)

Заголовок : Forced

Язык : Russian

Default : Да

Forced : Нет



Текст #2

Идентификатор : 9

Формат : UTF-8

Идентификатор кодека : S_TEXT/UTF8

Идентификатор кодека/Информация : UTF-8 Plain Text

Продолжительность : 2 ч. 0 м.

Битрейт : 4 бит/сек

Count of elements : 91

Размер потока : 4,27 Кбайт (0%)

Заголовок : Forced

Язык : Russian

Default : Нет

Forced : Нет



Текст #3

Идентификатор : 10

Формат : UTF-8

Идентификатор кодека : S_TEXT/UTF8

Идентификатор кодека/Информация : UTF-8 Plain Text

Продолжительность : 2 ч. 2 м.

Битрейт : 91 бит/сек

Count of elements : 1794

Размер потока : 82,6 Кбайт (0%)

Заголовок : Full

Язык : Russian

Default : Нет

Forced : Нет



Текст #4

Идентификатор : 11

Формат : UTF-8

Идентификатор кодека : S_TEXT/UTF8

Идентификатор кодека/Информация : UTF-8 Plain Text

Продолжительность : 1 ч. 58 м.

Битрейт : 4 бит/сек

Count of elements : 79

Размер потока : 3,65 Кбайт (0%)

Заголовок : Forced

Язык : Ukrainian

Default : Нет

Forced : Нет



Текст #5

Идентификатор : 12

Формат : UTF-8

Идентификатор кодека : S_TEXT/UTF8

Идентификатор кодека/Информация : UTF-8 Plain Text

Продолжительность : 2 ч. 2 м.

Битрейт : 102 бит/сек

Count of elements : 1618

Размер потока : 92,0 Кбайт (0%)

Заголовок : Full

Язык : Ukrainian

Default : Нет

Forced : Нет



Текст #6

Идентификатор : 13

Формат : UTF-8

Идентификатор кодека : S_TEXT/UTF8

Идентификатор кодека/Информация : UTF-8 Plain Text

Продолжительность : 1 ч. 45 м.

Битрейт : 2 бит/сек

Count of elements : 77

Размер потока : 2,22 Кбайт (0%)

Заголовок : Forced

Язык : English

Default : Нет

Forced : Нет



Текст #7

Идентификатор : 14

Формат : UTF-8

Идентификатор кодека : S_TEXT/UTF8

Идентификатор кодека/Информация : UTF-8 Plain Text

Продолжительность : 1 ч. 57 м.

Битрейт : 59 бит/сек

Count of elements : 1547

Размер потока : 50,9 Кбайт (0%)

Язык : English

Default : Нет

Forced : Нет



Текст #8

Идентификатор : 15

Формат : UTF-8

Идентификатор кодека : S_TEXT/UTF8

Идентификатор кодека/Информация : UTF-8 Plain Text

Продолжительность : 2 ч. 1 м.

Битрейт : 80 бит/сек

Count of elements : 2225

Размер потока : 71,4 Кбайт (0%)

Заголовок : SDH

Язык : English

Default : Нет

Forced : Нет



Меню

00:00:00.000 : en:Chapter 01

00:07:33.203 : en:Chapter 02

00:14:56.646 : en:Chapter 03

00:23:43.255 : en:Chapter 04

00:31:05.614 : en:Chapter 05

00:38:43.071 : en:Chapter 06

00:45:26.349 : en:Chapter 07

00:53:27.329 : en:Chapter 08

01:00:22.035 : en:Chapter 09

01:07:29.254 : en:Chapter 10

01:12:55.162 : en:Chapter 11

01:22:12.344 : en:Chapter 12

01:29:49.092 : en:Chapter 13

01:36:47.802 : en:Chapter 14

01:42:08.581 : en:Chapter 15

01:53:55.912 : en:Chapter 16

01:58:00.699 : en:Chapter 17

Скриншоты

Discussion

Comments 0

Post Your Comment

Files in this torrent

FILENAMESIZE
Bad Boys for Life.2020.BDRip.1080p.W.mkv10.3 GB

Alternative Torrents for 'Bad Boys for Life'.

TORRENT NAMEADDEDSIZESEEDSPEERSHEALTH
8/3/20201.4 GB14
7/28/20208.7 GB01
7/21/20201.9 GB00
7/19/20202.3 GB00
7/12/20202.8 GB00
7/12/20202.8 GB00
7/12/20201.6 GB00
6/30/20201.3 GB00
6/26/202020.8 GB00
6/22/20203.3 GB00
6/22/20209.9 GB00
6/18/20201.1 GB00
6/18/2020266 MB00
6/15/202047.4 GB00
6/4/20205.8 GB00