The Addams Family 2019 1080p HEVC 10bit

Torrent Details


The Addams Family  2019  1080p  HEVC  10bit

NAME
The Addams Family 2019 1080p HEVC 10bit.torrent
CATEGORY
Anime
INFOHASH
241d2da54621ed34bbc149cdf22045ae0f6ba9f7
SIZE
3.7 GB in 1 file
ADDED
Uploaded on 17-04-2020 by our crawler pet called "Spidey".
SWARM
0 seeders & 0 peers
RATING
This torrent has a bad rating! This torrent has BAD rating with 0 votes.

Please login to vote for this torrent.


Description

Год выхода: 2019

Страна / Студия: Канада, США / Metro-Goldwyn-Mayer (MGM), Cinesite Animation, BRON Studios

Жанр: мультфильм, фэнтези, комедия, семейный

Продолжительность: 01:27:01

Перевод: Дублированный (Лицензия)



Режиссер: Грег Тирнан, Конрад Вернон



Описание: Папа любит долгие прогулки в ненастную погоду. Мама считает, что черный цвет самый яркий. У детей кладбище — любимая площадка для игр. Бабушка выпивает пару капель яда перед сном. Вы все еще думаете, что ваши родственники странные? Знакомьтесь — семейка Аддамс.



Качество: BDRip 1080p

Видео: HEVC/H.265, 1920x1036, ~4988 Kbps

Аудио 1: AC3, 6 ch, 448 Kbps - Русский, дублированный

Аудио 2: AC3, 2 ch, 192 Kbps - Украинский, дублированный

Аудио 3: AC3, 6 ch, 448 Kbps - Английский

Субтитры: Русские (форсированные, полные), украинские (форсированные), английские







Mediainfo Общее

Уникальный идентификатор : 110470375772222730278543567098250780265 (0x531BD20A1BC6587EFB877DD6F3ABDE69)

Полное имя : R:The Addams Family. 2019. 1080p. HEVC. 10bit.mkv

Формат : Matroska

Версия формата : Version 4 / Version 2

Размер файла : 3,70 Гбайт

Продолжительность : 1 ч. 27 м.

Общий поток : 6079 Кбит/сек

Дата кодирования : UTC 2020-04-17 18:37:01

Программа кодирования : mkvmerge v28.2.0 ('The Awakening') 64-bit

Библиотека кодирования : libebml v1.3.6 + libmatroska v1.4.9

Обложка : Yes

Attachments : cover.jpg



Видео

Идентификатор : 1

Формат : HEVC

Формат/Информация : High Efficiency Video Coding

Профиль формата : Main [email protected]@Main

Идентификатор кодека : V_MPEGH/ISO/HEVC

Продолжительность : 1 ч. 27 м.

Битрейт : 4988 Кбит/сек

Ширина : 1920 пикселей

Высота : 1036 пикселей

Соотношение сторон : 1,85:1

Режим частоты кадров : Постоянный

Частота кадров : 23,976 (24000/1001) кадра/сек

Цветовое пространство : YUV

Субдискретизация насыщенности : 4:2:0

Битовая глубина : 10 бит

Бит/(Пиксели*Кадры) : 0.105

Размер потока : 3,03 Гбайт (82%)

Библиотека кодирования : x265 3.2+23-52135ffd9bcd:[Windows][GCC 9.2.0][64 bit] 10bit

Настройки программы : cpuid=1111039 / frame-threads=3 / numa-pools=8 / wpp / no-pmode / no-pme / no-psnr / no-ssim / log-level=2 / input-csp=1 / input-res=1920x1036 / interlace=0 / total-frames=125184 / level-idc=0 / high-tier=1 / uhd-bd=0 / ref=4 / no-allow-non-conformance / no-repeat-headers / annexb / no-aud / no-hrd / info / hash=0 / no-temporal-layers / open-gop / min-keyint=23 / keyint=250 / gop-lookahead=0 / bframes=8 / b-adapt=2 / b-pyramid / bframe-bias=0 / rc-lookahead=25 / lookahead-slices=4 / scenecut=40 / hist-scenecut=0 / radl=0 / no-splice / no-intra-refresh / ctu=64 / min-cu-size=8 / rect / no-amp / max-tu-size=32 / tu-inter-depth=1 / tu-intra-depth=1 / limit-tu=0 / rdoq-level=2 / dynamic-rd=0.00 / no-ssim-rd / signhide / no-tskip / nr-intra=0 / nr-inter=0 / no-constrained-intra / strong-intra-smoothing / max-merge=3 / limit-refs=3 / limit-modes / me=3 / subme=3 / merange=57 / temporal-mvp / no-frame-dup / no-hme / weightp / no-weightb / no-analyze-src-pics / deblock=0:0 / no-sao / no-sao-non-deblock / rd=4 / selective-sao=0 / no-early-skip / rskip / no-fast-intra / no-tskip-fast / no-cu-lossless / no-b-intra / no-splitrd-skip / rdpenalty=0 / psy-rd=2.00 / psy-rdoq=1.00 / no-rd-refine / no-lossless / cbqpoffs=0 / crqpoffs=0 / rc=crf / crf=18.0 / qcomp=0.60 / qpstep=4 / stats-write=0 / stats-read=0 / ipratio=1.40 / pbratio=1.30 / aq-mode=3 / aq-strength=1.00 / cutree / zone-count=0 / no-strict-cbr / qg-size=32 / no-rc-grain / qpmax=69 / qpmin=0 / no-const-vbv / sar=0 / overscan=0 / videoformat=5 / range=0 / colorprim=2 / transfer=2 / colormatrix=2 / chromaloc=0 / display-window=0 / cll=0,0 / min-luma=0 / max-luma=1023 / log2-max-poc-lsb=8 / vui-timing-info / vui-hrd-info / slices=1 / no-opt-qp-pps / no-opt-ref-list-length-pps / no-multi-pass-opt-rps / scenecut-bias=0.05 / hist-threshold=0.01 / no-opt-cu-delta-qp / aq-motion / no-hdr / no-hdr-opt / no-dhdr10-opt / no-idr-recovery-sei / analysis-reuse-level=5 / scale-factor=0 / refine-intra=0 / refine-inter=0 / refine-mv=1 / refine-ctu-distortion=0 / no-limit-sao / ctu-info=0 / no-lowpass-dct / refine-analysis-type=0 / copy-pic=1 / max-ausize-factor=1.0 / no-dynamic-refine / no-single-sei / no-hevc-aq / no-svt / no-field / qp-adaptation-range=1.00 / no-scenecut-aware-qp

Default : Да

Forced : Нет



Аудио #1

Идентификатор : 2

Формат : AC-3

Формат/Информация : Audio Coding 3

Идентификатор кодека : A_AC3

Продолжительность : 1 ч. 27 м.

Вид битрейта : Постоянный

Битрейт : 448 Кбит/сек

Каналы : 6 каналов

Расположение каналов : Front: L C R, Side: L R, LFE

Частота : 48,0 КГц

Частота кадров : 31,250 кадров/сек (1536 SPF)

Битовая глубина : 16 бит

Метод сжатия : С потерями

Размер потока : 279 Мбайт (7%)

Заголовок : Dub (Blu-Ray)

Язык : Russian

ServiceKind/Strin : Complete Main

Default : Да

Forced : Нет



Аудио #2

Идентификатор : 3

Формат : AC-3

Формат/Информация : Audio Coding 3

Идентификатор кодека : A_AC3

Продолжительность : 1 ч. 27 м.

Вид битрейта : Постоянный

Битрейт : 192 Кбит/сек

Каналы : 2 канала

Расположение каналов : Front: L R

Частота : 48,0 КГц

Частота кадров : 31,250 кадров/сек (1536 SPF)

Битовая глубина : 16 бит

Метод сжатия : С потерями

Размер потока : 119 Мбайт (3%)

Заголовок : Dub

Язык : Ukrainian

ServiceKind/Strin : Complete Main

Default : Нет

Forced : Нет



Аудио #3

Идентификатор : 4

Формат : AC-3

Формат/Информация : Audio Coding 3

Идентификатор кодека : A_AC3

Продолжительность : 1 ч. 27 м.

Вид битрейта : Постоянный

Битрейт : 448 Кбит/сек

Каналы : 6 каналов

Расположение каналов : Front: L C R, Side: L R, LFE

Частота : 48,0 КГц

Частота кадров : 31,250 кадров/сек (1536 SPF)

Битовая глубина : 16 бит

Метод сжатия : С потерями

Размер потока : 279 Мбайт (7%)

Язык : English

ServiceKind/Strin : Complete Main

Default : Нет

Forced : Нет



Текст #1

Идентификатор : 5

Формат : UTF-8

Идентификатор кодека : S_TEXT/UTF8

Идентификатор кодека/Информация : UTF-8 Plain Text

Продолжительность : 1 ч. 19 м.

Битрейт : 1 бит/сек

ElementCount : 39

Размер потока : 1,16 Кбайт (0%)

Заголовок : Forced

Язык : Russian

Default : Да

Forced : Нет



Текст #2

Идентификатор : 6

Формат : UTF-8

Идентификатор кодека : S_TEXT/UTF8

Идентификатор кодека/Информация : UTF-8 Plain Text

Продолжительность : 1 ч. 19 м.

Битрейт : 105 бит/сек

ElementCount : 1221

Размер потока : 61,5 Кбайт (0%)

Заголовок : Full

Язык : Russian

Default : Нет

Forced : Нет



Текст #3

Идентификатор : 7

Формат : UTF-8

Идентификатор кодека : S_TEXT/UTF8

Идентификатор кодека/Информация : UTF-8 Plain Text

Продолжительность : 1 ч. 19 м.

Битрейт : 1 бит/сек

ElementCount : 25

Размер потока : 775 байт (0%)

Заголовок : Full

Язык : Ukrainian

Default : Нет

Forced : Нет



Текст #4

Идентификатор : 8

Формат : UTF-8

Идентификатор кодека : S_TEXT/UTF8

Идентификатор кодека/Информация : UTF-8 Plain Text

Продолжительность : 1 ч. 25 м.

Битрейт : 69 бит/сек

ElementCount : 1436

Размер потока : 43,3 Кбайт (0%)

Язык : English

Default : Нет

Forced : Нет



Меню

00:00:00.000 : en:Chapter 01

00:05:08.558 : en:Chapter 02

00:10:35.468 : en:Chapter 03

00:15:46.612 : en:Chapter 04

00:19:35.257 : en:Chapter 05

00:25:14.596 : en:Chapter 06

00:29:25.764 : en:Chapter 07

00:34:20.475 : en:Chapter 08

00:39:46.967 : en:Chapter 09

00:45:01.740 : en:Chapter 10

00:49:07.319 : en:Chapter 11

00:53:40.926 : en:Chapter 12

00:56:36.518 : en:Chapter 13

01:00:00.763 : en:Chapter 14

01:03:45.947 : en:Chapter 15

01:06:02.166 : en:Chapter 16

01:10:54.583 : en:Chapter 17

01:18:09.476 : en:Chapter 18

01:20:21.107 : en:Chapter 19

01:21:11.449 : en:Chapter 20

Discussion

Comments 0

Post Your Comment

Files in this torrent

FILENAMESIZE
The Addams Family. 2019. 1080p. HEVC. 10bit.mkv3.7 GB

Alternative Torrents for 'Addams Family HEVC bit'.

There are no alternative torrents found.