Fantasy Island 2020 WEB-DLRip AVC

Torrent Details

Fantasy Island 2020 WEB-DLRip AVC
Fantasy Island 2020 WEB-DLRip AVC

NAME
Fantasy Island 2020 WEB-DLRip AVC.torrent
CATEGORY
Movies
INFOHASH
6851f745b6b36bc9cef3963a5f88e6787b2ccd86
SIZE
1.7 GB in 1 file
ADDED
Uploaded on 18-04-2020 by our crawler pet called "Spidey".
SWARM
0 seeders & 0 peers
RATING
No votes yet.

Please login to vote for this torrent.


Description

Информация о фильме

Название: Остров фантазий

Оригинальное название: Fantasy Island

Год выхода: 2020

Жанр: ужасы, триллер, фантастика





Режиссер: Джефф Уодлоу





В ролях: Майкл Пенья, Мэгги Кью, Люси Хейл, Остин Стоуэлл, Портия Даблдэй, Джимми О. Ян, Райан Хансен, Майкл Рукер, Париса Фитц-Хенли, Майк Фогель



О фильме:

Загадочный мистер Рорк воплощает в жизнь самые смелые и тайные мечты своих постояльцев на роскошном труднодоступном тропическом курорте. Но будут ли готовы гости разгадать тайну острова и спасти свои жизни, когда их фантазии обернутся кошмаром?











Страна: США

Продолжительность: 01:49:23

Перевод: Авторский (одноголосый, закадровый), Любительский (одноголосый закадровый)





Файл

Кодек: x.264

Качество: WEB-DLRip-AVC

Видео: AVC, 1020x424 (2.40:1), 23.976 fps, 1 296 kb/s

Аудио 1: AC3, 48.0 kHz, 6 ch, 384 kb/s | RUS [AVO - Вячеслав Замез]

Аудио 2: AC3, 48.0 kHz, 2 ch, 192 kb/s | RUS [VO - Антон Кудрявцев]

Аудио 3: AC3, 48.0 kHz, 6 ch, 384 kb/s | ENG

Субтитры: Русские (Full), украинские (Full), английские (Full, SDH)



Сэмпл





MIGeneral

Unique ID : 206165505192216356253550594550950048002 (0x9B1A0830D209EEE4B62E6721CCF8B102)

Complete name : Fantasy.Island.2020.WEB-DLRip.AVC.mkv

Format : Matroska

Format version : Version 4

File size : 1.73 GiB

Duration : 1 h 49 min

Overall bit rate : 2 259 kb/s

Encoded date : UTC 2020-04-18 12:07:21

Writing application : mkvmerge v8.3.0 ('Over the Horizon') 64bit

Writing library : libebml v1.3.1 + libmatroska v1.4.2



Video

ID : 1

Format : AVC

Format/Info : Advanced Video Codec

Format profile : [email protected]

Format settings : CABAC / 11 Ref Frames

Format settings, CABAC : Yes

Format settings, ReFrames : 11 frames

Codec ID : V_MPEG4/ISO/AVC

Duration : 1 h 49 min

Bit rate : 1 296 kb/s

Width : 1 020 pixels

Height : 424 pixels

Display aspect ratio : 2.40:1

Frame rate mode : Constant

Frame rate : 23.976 (24000/1001) FPS

Color space : YUV

Chroma subsampling : 4:2:0

Bit depth : 8 bits

Scan type : Progressive

Bits/(Pixel*Frame) : 0.125

Stream size : 1 014 MiB (57%)

Writing library : x264 core 160 r3000 33f9e14

Encoding settings : cabac=1 / ref=11 / deblock=1:-2:-1 / analyse=0x3:0x113 / me=umh / subme=10 / psy=1 / psy_rd=1.00:0.00 / mixed_ref=1 / me_range=32 / chroma_me=1 / trellis=2 / 8x8dct=1 / cqm=0 / deadzone=21,11 / fast_pskip=0 / chroma_qp_offset=-2 / threads=12 / lookahead_threads=3 / sliced_threads=0 / nr=0 / decimate=1 / interlaced=0 / bluray_compat=0 / constrained_intra=0 / bframes=11 / b_pyramid=2 / b_adapt=2 / b_bias=0 / direct=1 / weightb=1 / open_gop=0 / weightp=2 / keyint=240 / keyint_min=23 / scenecut=40 / intra_refresh=0 / rc_lookahead=60 / rc=crf / mbtree=1 / crf=20.4 / qcomp=0.65 / qpmin=0 / qpmax=69 / qpstep=4 / vbv_maxrate=50000 / vbv_bufsize=62500 / crf_max=0.0 / nal_hrd=none / filler=0 / ip_ratio=1.40 / aq=1:1.00

Default : Yes

Forced : No



Audio #1

ID : 2

Format : AC-3

Format/Info : Audio Coding 3

Commercial name : Dolby Digital

Codec ID : A_AC3

Duration : 1 h 49 min

Bit rate mode : Constant

Bit rate : 384 kb/s

Channel(s) : 6 channels

Channel layout : L R C LFE Ls Rs

Sampling rate : 48.0 kHz

Frame rate : 31.250 FPS (1536 SPF)

Bit depth : 16 bits

Compression mode : Lossy

Stream size : 300 MiB (17%)

Title : AVO [Вячеслав Замез]

Language : Russian

Service kind : Complete Main

Default : Yes

Forced : No



Audio #2

ID : 3

Format : AC-3

Format/Info : Audio Coding 3

Commercial name : Dolby Digital

Codec ID : A_AC3

Duration : 1 h 49 min

Bit rate mode : Constant

Bit rate : 192 kb/s

Channel(s) : 2 channels

Channel layout : L R

Sampling rate : 48.0 kHz

Frame rate : 31.250 FPS (1536 SPF)

Bit depth : 16 bits

Compression mode : Lossy

Stream size : 150 MiB (8%)

Title : VO [Антон Кудрявцев]

Language : Russian

Service kind : Complete Main

Default : No

Forced : No



Audio #3

ID : 4

Format : AC-3

Format/Info : Audio Coding 3

Commercial name : Dolby Digital

Codec ID : A_AC3

Duration : 1 h 49 min

Bit rate mode : Constant

Bit rate : 384 kb/s

Channel(s) : 6 channels

Channel layout : L R C LFE Ls Rs

Sampling rate : 48.0 kHz

Frame rate : 31.250 FPS (1536 SPF)

Bit depth : 16 bits

Compression mode : Lossy

Stream size : 300 MiB (17%)

Language : English

Service kind : Complete Main

Default : No

Forced : No



Text #1

ID : 5

Format : UTF-8

Codec ID : S_TEXT/UTF8

Codec ID/Info : UTF-8 Plain Text

Duration : 1 h 48 min

Bit rate : 96 b/s

Count of elements : 1409

Stream size : 76.5 KiB (0%)

Title : Full [Екатерина Лисицина]

Language : Russian

Default : No

Forced : No



Text #2

ID : 6

Format : UTF-8

Codec ID : S_TEXT/UTF8

Codec ID/Info : UTF-8 Plain Text

Duration : 1 h 48 min

Bit rate : 89 b/s

Count of elements : 1409

Stream size : 70.9 KiB (0%)

Title : Full [Владимир Фатун]

Language : Ukrainian

Default : No

Forced : No



Text #3

ID : 7

Format : UTF-8

Codec ID : S_TEXT/UTF8

Codec ID/Info : UTF-8 Plain Text

Duration : 1 h 46 min

Bit rate : 61 b/s

Count of elements : 1581

Stream size : 48.1 KiB (0%)

Title : Full

Language : English

Default : No

Forced : No



Text #4

ID : 8

Format : UTF-8

Codec ID : S_TEXT/UTF8

Codec ID/Info : UTF-8 Plain Text

Duration : 1 h 48 min

Bit rate : 67 b/s

Count of elements : 1930

Stream size : 53.5 KiB (0%)

Title : SDH

Language : English

Default : No

Forced : No



Menu

00:00:00.000 : en:1

00:08:46.985 : en:2

00:13:44.699 : en:3

00:18:47.709 : en:4

00:25:42.915 : en:5

00:32:40.749 : en:6

00:39:34.788 : en:7

00:45:24.512 : en:8

00:51:01.932 : en:9

00:55:38.124 : en:10

01:01:33.937 : en:11

01:09:39.881 : en:12

01:15:22.306 : en:13

01:23:02.808 : en:14

01:29:11.801 : en:15

01:40:04.119 : en:16Скриншоты

Discussion

Comments 0

Post Your Comment

Files in this torrent

FILENAMESIZE
Fantasy.Island.2020.WEB-DLRip.AVC.mkv1.7 GB

Alternative Torrents for 'Fantasy Island DLRip AVC'.

TORRENT NAMEADDEDSIZESEEDSPEERSHEALTH
4/27/2020746 MB00
4/18/20201.7 GB00