Addams Family Values 1993 1080p RUS ENG BluRay REMUX

Torrent Details

Addams Family Values 1993 1080p RUS ENG BluRay REMUX

NAME
Addams Family Values 1993 1080p RUS ENG BluRay REMUX.torrent
CATEGORY
Movies
INFOHASH
3696b6ddaf3de0555c5621cb04502a26316e0c8f
SIZE
28.5 GB in 1 file
ADDED
Uploaded on 19-04-2020 by our crawler pet called "Spidey".
SWARM
0 seeders & 0 peers
RATING
This torrent has a bad rating! This torrent has BAD rating with 0 votes.

Please login to vote for this torrent.


Description

Ценности семейки Аддамс / Addams Family Values (1993) BDRemux





Информация о фильме

Название: Ценности семейки Аддамс

Оригинальное название: Addams Family Values

Год выхода: 1993

Жанр: фэнтези, комедия



Режиссер: Барри Зонненфельд / Barry Sonnenfeld



В ролях: Анжелика Хьюстон, Рауль Хулиа, Кристофер Ллойд, Джоан Кьюсак, Кристина Риччи, Кэрол Кейн, Джимми Уоркмэн, Кейтлин Хупер, Кристен Хупер, Карел Стрёйкен



Описание: У Гомеса и Мортиши Аддамсов рождается сын. Они нанимают для ухода за новорождённым няню Дебби Джелински, которая, соблазнившись богатством дяди Фестера, влюбляет его в себя и начинает плести интриги против остальной семьи. Юная Уэнсди Аддамс обнаруживает коварные замыслы няни и начинает слежку за ней. Но вскоре, за излишнюю любознательность, Уэнсди и Пагсли ссылают в детский лагерь…







Производство: США / Paramount Pictures, Scott Rudin Productions

Продолжительность: 01:34:12

Перевод 1: Профессиональный (двухголосый, закадровый) | iTunes / HTB+

Перевод 2: Профессиональный (многоголосый, закадровый)

Перевод 3: Профессиональный (многоголосый, закадровый) | Paramount Channel

Перевод 4: Профессиональный (многоголосый, закадровый) | CTC

Перевод 5: Профессиональный (двухголосый, закадровый) | Премьер Видео Фильм

Перевод 6: Авторский (одноголосый, закадровый) | А. Михалёв

Перевод 7: Авторский (одноголосый, закадровый) | Ю. Сербин

Перевод 8: Авторский (одноголосый, закадровый) | В. Горчаков

Перевод 9: Авторский (одноголосый, закадровый) | В. Сонькин

Субтитры: русские, английские (2 вида)

Навигация по главам: Есть (подписаны)



Файл

Качество: BDRemux 1080p

Формат: MKV

Видео: MPEG-4 AVC, 1920x1080 (16:9), 23.976 fps, ~35.0 Мbps avg, 0.680 bit/pixel

Аудио 1: AC3, 6 ch., 48 kHz, 448 kbps | DVO iTunes / HTB+

Аудио 2: AC3, 6 ch., 48 kHz, 448 kbps | MVO

Аудио 3: AC3, 2 ch., 48 kHz, 192 kbps | MVO Paramount Channel

Аудио 4: AC3, 2 ch., 48 kHz, 256 kbps | MVO CTC

Аудио 5: AC3, 2 ch., 48 kHz, 256 kbps | DVO Премьер Видео Фильм

Аудио 6: AC3, 6 ch., 48 kHz, 448 kbps | AVO А. Михалёв

Аудио 7: AC3, 6 ch., 48 kHz, 448 kbps | AVO Ю. Сербин

Аудио 8: AC3, 2 ch., 48 kHz, 192 kbps | AVO В. Горчаков

Аудио 9: AC3, 2 ch., 48 kHz, 192 kbps | AVO В. Сонькин

Аудио 10: DTS-HD MA, 2 ch., 48 kHz, ~2213 kbps | DVO Премьер Видео Фильм

Аудио 11: AC3, 6 ch., 48 kHz, 640 kbps | ENG

Аудио 12: DTS-HD MA, 6 ch., 48 kHz, ~3840 kbps | ENG



дополнительная информация по переводу DVO Премьер Видео ФильмОцифровка и синхронизация из лицензионной VHS: PUSSEN, за что ему огромное спасибо! Качество звучания лучше, чем в ранних релизах. Дорога №6 получена из этой DTS-HD MAMediaInfoОбщее

Уникальный идентификатор : 233189606110893934652047139427209259923 (0xAF6EAF3C3C807D8B221FEA1389292B93)

Полное имя : Addams.Family.Values.1993.1080p.RUS.ENG.BluRay.REMUX.mkv

Формат : Matroska

Версия формата : Version 4 / Version 2

Размер файла : 28,5 Гбайт

Продолжительность : 1 ч. 34 м.

Режим общего битрейта : Переменный

Общий поток : 43,3 Мбит/сек

Название фильма : Ценности семейки Аддамс / Addams Family Values (1993)

Дата кодирования : UTC 2020-04-18 17:22:24

Программа кодирования : mkvmerge v44.0.0 ('Domino') 64-bit

Библиотека кодирования : libebml v1.3.10 + libmatroska v1.5.2

Обложка : Yes

Attachments : cover.jpg



Видео

Идентификатор : 1

Формат : AVC

Формат/Информация : Advanced Video Codec

Профиль формата : [email protected]

Настройки формата : CABAC / 4 Ref Frames

Параметр CABAC формата : Да

Параметр RefFrames формата : 4 кадра

Идентификатор кодека : V_MPEG4/ISO/AVC

Продолжительность : 1 ч. 34 м.

Вид битрейта : Переменный

Битрейт : 33,8 Мбит/сек

Максимальный битрейт : 36,0 Мбит/сек

Ширина : 1920 пикселей

Высота : 1080 пикселей

Соотношение сторон : 16:9

Режим частоты кадров : Постоянный

Частота кадров : 23,976 (24000/1001) кадра/сек

Цветовое пространство : YUV

Субдискретизация насыщенности : 4:2:0

Битовая глубина : 8 бит

Тип развёртки : Прогрессивная

Бит/(Пиксели*Кадры) : 0.680

Размер потока : 22,2 Гбайт (78%)

Заголовок : BluRay Remux 1080p

Язык : English

Default : Да

Forced : Нет



Аудио #1

Идентификатор : 2

Формат : AC-3

Формат/Информация : Audio Coding 3

Идентификатор кодека : A_AC3

Продолжительность : 1 ч. 34 м.

Вид битрейта : Постоянный

Битрейт : 448 Кбит/сек

Каналы : 6 каналов

Расположение каналов : Front: L C R, Side: L R, LFE

Частота : 48,0 КГц

Частота кадров : 31,250 кадров/сек (1536 SPF)

Битовая глубина : 16 бит

Метод сжатия : С потерями

Размер потока : 302 Мбайт (1%)

Заголовок : DVO | iTunes (HTB+)

Язык : Russian

Default : Да

Forced : Нет



Аудио #2

Идентификатор : 3

Формат : AC-3

Формат/Информация : Audio Coding 3

Идентификатор кодека : A_AC3

Продолжительность : 1 ч. 34 м.

Вид битрейта : Постоянный

Битрейт : 448 Кбит/сек

Каналы : 6 каналов

Расположение каналов : Front: L C R, Side: L R, LFE

Частота : 48,0 КГц

Частота кадров : 31,250 кадров/сек (1536 SPF)

Битовая глубина : 16 бит

Метод сжатия : С потерями

Размер потока : 302 Мбайт (1%)

Заголовок : MVO

Язык : Russian

Default : Нет

Forced : Нет



Аудио #3

Идентификатор : 4

Формат : AC-3

Формат/Информация : Audio Coding 3

Идентификатор кодека : A_AC3

Продолжительность : 1 ч. 34 м.

Вид битрейта : Постоянный

Битрейт : 192 Кбит/сек

Каналы : 2 канала

Расположение каналов : Front: L R

Частота : 48,0 КГц

Частота кадров : 31,250 кадров/сек (1536 SPF)

Битовая глубина : 16 бит

Метод сжатия : С потерями

Размер потока : 129 Мбайт (0%)

Заголовок : MVO | Paramount Channel

Язык : Russian

Default : Нет

Forced : Нет



Аудио #4

Идентификатор : 5

Формат : AC-3

Формат/Информация : Audio Coding 3

Идентификатор кодека : A_AC3

Продолжительность : 1 ч. 34 м.

Вид битрейта : Постоянный

Битрейт : 256 Кбит/сек

Каналы : 2 канала

Расположение каналов : Front: L R

Частота : 48,0 КГц

Частота кадров : 31,250 кадров/сек (1536 SPF)

Битовая глубина : 16 бит

Метод сжатия : С потерями

Размер потока : 172 Мбайт (1%)

Заголовок : MVO | CTC

Язык : Russian

Default : Нет

Forced : Нет



Аудио #5

Идентификатор : 6

Формат : AC-3

Формат/Информация : Audio Coding 3

Идентификатор кодека : A_AC3

Продолжительность : 1 ч. 34 м.

Вид битрейта : Постоянный

Битрейт : 256 Кбит/сек

Каналы : 2 канала

Расположение каналов : Front: L R

Частота : 48,0 КГц

Частота кадров : 31,250 кадров/сек (1536 SPF)

Битовая глубина : 16 бит

Метод сжатия : С потерями

Размер потока : 172 Мбайт (1%)

Заголовок : DVO | Премьер Видео Фильм

Язык : Russian

Default : Нет

Forced : Нет



Аудио #6

Идентификатор : 7

Формат : AC-3

Формат/Информация : Audio Coding 3

Идентификатор кодека : A_AC3

Продолжительность : 1 ч. 34 м.

Вид битрейта : Постоянный

Битрейт : 448 Кбит/сек

Каналы : 6 каналов

Расположение каналов : Front: L C R, Side: L R, LFE

Частота : 48,0 КГц

Частота кадров : 31,250 кадров/сек (1536 SPF)

Битовая глубина : 16 бит

Метод сжатия : С потерями

Размер потока : 302 Мбайт (1%)

Заголовок : AVO | А. Михалёв

Язык : Russian

Default : Нет

Forced : Нет



Аудио #7

Идентификатор : 8

Формат : AC-3

Формат/Информация : Audio Coding 3

Идентификатор кодека : A_AC3

Продолжительность : 1 ч. 34 м.

Вид битрейта : Постоянный

Битрейт : 448 Кбит/сек

Каналы : 6 каналов

Расположение каналов : Front: L C R, Side: L R, LFE

Частота : 48,0 КГц

Частота кадров : 31,250 кадров/сек (1536 SPF)

Битовая глубина : 16 бит

Метод сжатия : С потерями

Размер потока : 302 Мбайт (1%)

Заголовок : AVO | Ю. Сербин

Язык : Russian

Default : Нет

Forced : Нет



Аудио #8

Идентификатор : 9

Формат : AC-3

Формат/Информация : Audio Coding 3

Идентификатор кодека : A_AC3

Продолжительность : 1 ч. 34 м.

Вид битрейта : Постоянный

Битрейт : 192 Кбит/сек

Каналы : 2 канала

Расположение каналов : Front: L R

Частота : 48,0 КГц

Частота кадров : 31,250 кадров/сек (1536 SPF)

Битовая глубина : 16 бит

Метод сжатия : С потерями

Размер потока : 129 Мбайт (0%)

Заголовок : AVO | В. Горчаков

Язык : Russian

Default : Нет

Forced : Нет



Аудио #9

Идентификатор : 10

Формат : AC-3

Формат/Информация : Audio Coding 3

Идентификатор кодека : A_AC3

Продолжительность : 1 ч. 34 м.

Вид битрейта : Постоянный

Битрейт : 192 Кбит/сек

Каналы : 2 канала

Расположение каналов : Front: L R

Частота : 48,0 КГц

Частота кадров : 31,250 кадров/сек (1536 SPF)

Битовая глубина : 16 бит

Метод сжатия : С потерями

Размер потока : 129 Мбайт (0%)

Заголовок : AVO | В. Сонькин

Язык : Russian

Default : Нет

Forced : Нет



Аудио #10

Идентификатор : 11

Формат : DTS

Формат/Информация : Digital Theater Systems

Профиль формата : MA / Core

Идентификатор кодека : A_DTS

Продолжительность : 1 ч. 34 м.

Вид битрейта : Переменный / Постоянный

Битрейт : 2213 Кбит/сек / 1509 Кбит/сек

Каналы : 2 канала

Расположение каналов : Front: L R

Частота : 48,0 КГц

Частота кадров : 93,750 кадра/сек (512 SPF)

Битовая глубина : 24 бит

Метод сжатия : Без потерь / Lossy

Размер потока : 1,46 Гбайт (5%)

Заголовок : DVO | Премьер Видео Фильм

Язык : Russian

Default : Нет

Forced : Нет



Аудио #11

Идентификатор : 12

Формат : AC-3

Формат/Информация : Audio Coding 3

Идентификатор кодека : A_AC3

Продолжительность : 1 ч. 34 м.

Вид битрейта : Постоянный

Битрейт : 640 Кбит/сек

Каналы : 6 каналов

Расположение каналов : Front: L C R, Side: L R, LFE

Частота : 48,0 КГц

Частота кадров : 31,250 кадров/сек (1536 SPF)

Битовая глубина : 16 бит

Метод сжатия : С потерями

Размер потока : 431 Мбайт (1%)

Заголовок : Original

Язык : English

Default : Нет

Forced : Нет



Аудио #12

Идентификатор : 13

Формат : DTS

Формат/Информация : Digital Theater Systems

Профиль формата : MA / Core

Идентификатор кодека : A_DTS

Продолжительность : 1 ч. 34 м.

Вид битрейта : Переменный / Постоянный

Битрейт : 3840 Кбит/сек / 1509 Кбит/сек

Каналы : 6 каналов

Расположение каналов : Front: L C R, Side: L R, LFE

Частота : 48,0 КГц

Частота кадров : 93,750 кадра/сек (512 SPF)

Битовая глубина : 24 бит

Метод сжатия : Без потерь / Lossy

Размер потока : 2,48 Гбайт (9%)

Заголовок : Original

Язык : English

Default : Нет

Forced : Нет



Текст #1

Идентификатор : 14

Формат : UTF-8

Идентификатор кодека : S_TEXT/UTF8

Идентификатор кодека/Информация : UTF-8 Plain Text

Продолжительность : 1 ч. 33 м.

Битрейт : 87 бит/сек

ElementCount : 1375

Размер потока : 59,8 Кбайт (0%)

Заголовок : Rus (Full)

Язык : Russian

Default : Нет

Forced : Нет



Текст #2

Идентификатор : 15

Формат : PGS

Режим смешивания : zlib

Идентификатор кодека : S_HDMV/PGS

Идентификатор кодека/Информация : Picture based subtitle format used on BDs/HD-DVDs

Продолжительность : 1 ч. 27 м.

Битрейт : 34,7 Кбит/сек

ElementCount : 2414

Размер потока : 21,6 Мбайт (0%)

Язык : English

Default : Нет

Forced : Нет



Текст #3

Идентификатор : 16

Формат : PGS

Режим смешивания : zlib

Идентификатор кодека : S_HDMV/PGS

Идентификатор кодека/Информация : Picture based subtitle format used on BDs/HD-DVDs

Продолжительность : 1 ч. 33 м.

Битрейт : 42,0 Кбит/сек

ElementCount : 2237

Размер потока : 28,2 Мбайт (0%)

Язык : English

Default : Нет

Forced : Нет



Меню

00:00:00.000 : en:It's an Addams

00:04:54.168 : en:Sibling Rivalry

00:10:20.411 : en:The Nanny

00:15:55.954 : en:The Black Widow

00:20:18.467 : en:Summer Camp

00:25:26.691 : en:Prince Charming

00:38:26.303 : en:The Addams Clan

00:41:46.128 : en:Unending Love

00:44:26.038 : en:Romantic Living

00:54:09.412 : en:Love Slave

00:58:03.062 : en:Terrifying Changes

01:03:46.948 : en:A Thoughtful Gift

01:15:05.459 : en:He Lives

01:19:09.870 : en:What About Debbie?

01:24:37.071 : en:Dementia

01:28:05.113 : en:End CreditsСкриншоты

Discussion

Comments 0

Post Your Comment

Files in this torrent

FILENAMESIZE
Addams.Family.Values.1993.1080p.RUS.ENG.BluRay.REMUX.mkv28.5 GB

Alternative Torrents for 'Addams Family Values RUS ENG BluRay REMUX'.

TORRENT NAMEADDEDSIZESEEDSPEERSHEALTH
4/19/202028.5 GB00