Underwater (2020) 720p H264 Ita Eng Ac3 5.1 Sub Ita Eng-MIRCrew

Torrent Details

Underwater (2020) 720p H264 ita eng Ac3 5.1 sub ita eng<span style=color:#fc9c6d>-MIRCrew</span>

NAME
Underwater (2020) 720p H264 ita eng Ac3 5.1 sub ita eng-MIRCrew.torrent
CATEGORY
Movies
INFOHASH
b12fd5bcde9d1eb637bbfd57f22720235226c8bb
SIZE
1.8 GB in 4 files
ADDED
Uploaded on 21-04-2020 by our crawler pet called "Spidey".
SWARM
0 seeders & 0 peers
RATING
No votes yet.

Please login to vote for this torrent.


Description

Underwater (2020).720p.H264.ita.eng.Ac3-5.1.sub.ita.eng-MIRCrew


NO FOUND ONLY ORIGINAL RELEASE

My release is always in double track audio italian and Original audio
for select it use VLC or dvd player home
not use wmp

Underwater (2020)

Quality MIRCrew on HD 720p da 1,8 Gb









Lingua originaleinglese
Paese di produzioneStati Uniti d'America
Anno2020
Generethriller, fantascienza, orrore
RegiaWilliam Eubank
SceneggiaturaBrian Duffield, Adam Cozad



Kristen Stewart: Norah Price
Vincent Cassel: capitano Lucien
T. J. Miller: Paul
Jessica Henwick: Emily Haversham
John Gallagher Jr.: Liam Smith
Mamoudou Athie: Rodrigo
Gunner Wright: Lee



Nel futuro, la compagnia Tian Industries ha installato una base sottomarina sul fondo della Fossa delle Marianne per perforare sette miglia in profondità e ricavare risorse energetiche. Un forte terremoto colpisce una sezione della stazione mineraria di Kepler, che inizia a subire una catastrofica perdita di pressione.



A crew of oceanic researchers working for a deep sea drilling company try to get to safety after a mysterious earthquake devastates their deepwater research and drilling facility located at the bottom of the Mariana Trench. ..















General

Complete name : Underwater (2020).720p.H264.ita.eng.Ac3 5.1.sub.ita.eng-MIRCrew.mkv
Format : Matroska
Format version : Version 2
File size : 1.82 GiB
Duration : 1h 34mn
Overall bit rate : 2 749 Kbps
Movie name : MIRCrew
Encoded date : UTC 2020-04-01 23:52:53
Writing application : mkvmerge v5.4.0 ('Piper') built on Mar 10 2012 13:34:39
Writing library : Lavf54.63.100
COMMENT : MIRCrew

Video
ID : 1
Format : AVC
Format/Info : Advanced Video Codec
Format profile : [email protected]
Format settings, CABAC : Yes
Format settings, ReFrames : 2 frames
Codec ID : V_MPEG4/ISO/AVC
Duration : 1h 34mn
Bit rate : 2 000 Kbps
Width : 1 280 pixels
Height : 528 pixels
Display aspect ratio : 2.40:1
Frame rate mode : Variable
Frame rate : 23.976 fps
Color space : YUV
Chroma subsampling : 4:2:0
Bit depth : 8 bits
Scan type : Progressive
Bits/(Pixel*Frame) : 0.123
Stream size : 1.28 GiB (70%)
Title : MIRCrew
Writing library : x264 core 130 r2273
Encoding settings : cabac=1 / ref=2 / deblock=1:-1:-1 / analyse=0x1:0x131 / me=hex / subme=7 / psy=1 / psy_rd=1.00:0.15 / mixed_ref=0 / me_range=16 / chroma_me=1 / trellis=1 / 8x8dct=0 / cqm=0 / deadzone=21,11 / fast_pskip=1 / chroma_qp_offset=-3 / threads=9 / lookahead_threads=1 / sliced_threads=0 / nr=0 / decimate=1 / interlaced=0 / bluray_compat=0 / constrained_intra=0 / bframes=3 / b_pyramid=0 / b_adapt=1 / b_bias=0 / direct=3 / weightb=1 / open_gop=0 / weightp=2 / keyint=230 / keyint_min=23 / scenecut=40 / intra_refresh=0 / rc_lookahead=40 / rc=abr / mbtree=1 / bitrate=2000 / ratetol=1.0 / qcomp=0.60 / qpmin=10 / qpmax=69 / qpstep=4 / vbv_maxrate=24000 / vbv_bufsize=24000 / nal_hrd=none / ip_ratio=1.40 / aq=1:1.00
Language : Italian
Default : Yes
Forced : No
DURATION : 01:34:58.276000000
NUMBER_OF_FRAMES : 136622
NUMBER_OF_BYTES : 8187482000
_STATISTICS_WRITING_APP : mkvmerge v43.0.0 ('The Quartermaster') 64-bit
_STATISTICS_WRITING_DATE_UTC : 2020-04-01 23:52:53
_STATISTICS_TAGS : BPS DURATION NUMBER_OF_FRAMES NUMBER_OF_BYTES

Audio #1
ID : 2
Format : AC-3
Format/Info : Audio Coding 3
Mode extension : CM (complete main)
Codec ID : A_AC3
Duration : 1h 34mn
Bit rate mode : Constant
Bit rate : 384 Kbps
Channel(s) : 6 channels
Channel positions : Front: L C R, Side: L R, LFE
Sampling rate : 48.0 KHz
Bit depth : 16 bits
Compression mode : Lossy
Delay relative to video : -42ms
Stream size : 261 MiB (14%)
Title : Ita Ac3 5.1
Language : English
Default : Yes
Forced : No
DURATION : 01:34:58.283000000
NUMBER_OF_FRAMES : 534214
NUMBER_OF_BYTES : 3672934832
_STATISTICS_WRITING_APP : mkvmerge v43.0.0 ('The Quartermaster') 64-bit
_STATISTICS_WRITING_DATE_UTC : 2020-04-01 23:52:53
_STATISTICS_TAGS : BPS DURATION NUMBER_OF_FRAMES NUMBER_OF_BYTES

Audio #2
ID : 3
Format : AC-3
Format/Info : Audio Coding 3
Mode extension : CM (complete main)
Codec ID : A_AC3
Duration : 1h 34mn
Bit rate mode : Constant
Bit rate : 384 Kbps
Channel(s) : 6 channels
Channel positions : Front: L C R, Side: L R, LFE
Sampling rate : 48.0 KHz
Bit depth : 16 bits
Compression mode : Lossy
Delay relative to video : -5ms
Stream size : 261 MiB (14%)
Title : Rng Ac3 5.1
Language : English
Default : No
Forced : No

Discussion

Comments 0

Post Your Comment

Files in this torrent

FILENAMESIZE
Underwater (2020).720p.H264.ita.eng.Ac3 5.1.sub.ita.eng-MIRCrew.eng.srt79 KB
Underwater (2020).720p.H264.ita.eng.Ac3 5.1.sub.ita.eng-MIRCrew.ita.srt73.3 KB
Underwater (2020).720p.H264.ita.eng.Ac3 5.1.sub.ita.eng-MIRCrew.mkv1.8 GB
Underwater (2020).720p.H264.ita.eng.Ac3 5.1.sub.ita.eng-MIRCrew.srt3.8 KB

Alternative Torrents for 'Underwater eng sub eng'.

TORRENT NAMEADDEDSIZESEEDSPEERSHEALTH
5/7/20208.2 GB00
4/21/20201.8 GB00
4/18/20202.4 GB00