Fantasy Island (2020) (1080p AMZN Webrip X265 10bit EAC3 5.1 - ArcX)[TAoE]

Torrent Details

Fantasy Island (2020) (1080p AMZN Webrip x265 10bit EAC3 5.1 - ArcX)<span style=color:#fc9c6d>[TAoE]</span>
Fantasy Island (2020) (1080p AMZN Webrip x265 10bit EAC3 5.1 - ArcX)<span style=color:#fc9c6d>[TAoE]</span>

NAME
Fantasy Island (2020) (1080p AMZN Webrip x265 10bit EAC3 5.1 - ArcX)[TAoE].torrent
CATEGORY
Movies
INFOHASH
302790b9ebf488b65156d72eb1446e1459dfca49
SIZE
2.9 GB in 1 file
ADDED
Uploaded on 22-04-2020 by our crawler pet called "Spidey".
SWARM
0 seeders & 0 peers
RATING
No votes yet.

Please login to vote for this torrent.


Description




Fantasy Island (2020) IMDB








Media Information


General
Unique ID : 214446316049427582092019696522194982738 (0xA154DBB00041AD59F8CA4E412B6E1752)
Complete name : Fantasy Island (2020) (1080p AMZN Webrip x265 10bit EAC3 5.1 - ArcX)[TAoE].mkv
Format : Matroska
Format version : Version 4
File size : 6.71 GiB
Duration : 1 h 49 min
Overall bit rate : 8 779 kb/s
Movie name : Fantasy Island (2020) (1080p AMZN Webrip x265 10bit EAC3 5.1 - ArcX)[TAoE].mkv
Encoded date : UTC 2020-04-14 07:05:03
Writing application : mkvmerge v21.0.0 ('Tardigrades Will Inherit The Earth') 64-bit
Writing library : libebml v1.3.5 + libmatroska v1.4.8

Video
ID : 1
Format : AVC
Format/Info : Advanced Video Codec
Format profile : [email protected]
Format settings : CABAC / 4 Ref Frames
Format settings, CABAC : Yes
Format settings, Reference frames : 4 frames
Codec ID : V_MPEG4/ISO/AVC
Duration : 1 h 49 min
Bit rate mode : Constant
Bit rate : 8 137 kb/s
Nominal bit rate : 10 000 kb/s
Width : 1 920 pixels
Height : 800 pixels
Display aspect ratio : 2.40:1
Frame rate mode : Constant
Frame rate : 23.976 (24000/1001) FPS
Color space : YUV
Chroma subsampling : 4:2:0
Bit depth : 8 bits
Scan type : Progressive
Bits/(Pixel*Frame) : 0.221
Stream size : 6.22 GiB (93%)
Default : Yes
Forced : No
Color range : Limited
Color primaries : BT.709
Transfer characteristics : BT.709
Matrix coefficients : BT.709

Audio
ID : 2
Format : E-AC-3
Format/Info : Enhanced AC-3
Commercial name : Dolby Digital Plus
Codec ID : A_EAC3
Duration : 1 h 49 min
Bit rate mode : Constant
Bit rate : 640 kb/s
Channel(s) : 6 channels
Channel layout : L R C LFE Ls Rs
Sampling rate : 48.0 kHz
Frame rate : 31.250 FPS (1536 SPF)
Compression mode : Lossy
Stream size : 501 MiB (7%)
Language : English
Service kind : Complete Main
Default : Yes
Forced : No

Text #1
ID : 3
Format : UTF-8
Codec ID : S_TEXT/UTF8
Codec ID/Info : UTF-8 Plain Text
Duration : 1 h 46 min
Bit rate : 61 b/s
Count of elements : 1581
Stream size : 48.1 KiB (0%)
Language : English
Default : No
Forced : No

Text #2
ID : 4
Format : UTF-8
Codec ID : S_TEXT/UTF8
Codec ID/Info : UTF-8 Plain Text
Duration : 1 h 48 min
Bit rate : 67 b/s
Count of elements : 1930
Stream size : 53.5 KiB (0%)
Title : SDH
Language : English
Default : No
Forced : No


Source
1080p AMZN WEB-DL NTG

Hello everyone,
We are TAoE, a small team of passionate encoders who love encoding. We try our best to provide you with high quality releases.
If you would like to join the team just drop us a comment or send us a message.


.........................................................................................................................................

Discussion

Comments 0

Post Your Comment

Files in this torrent

FILENAMESIZE
Fantasy Island (2020) (1080p AMZN Webrip x265 10bit EAC3 5.1 - ArcX)[TAoE].mkv2.9 GB

Alternative Torrents for 'Fantasy Island bit EAC ArcX'.

TORRENT NAMEADDEDSIZESEEDSPEERSHEALTH
6/24/20201.2 GB1917
6/17/20205 GB13813
6/18/20201.5 GB996
6/18/20204 GB7810
6/18/202010 GB644
Yesterday326 MB547
Yesterday1.7 GB5033
6/27/20201.3 GB425
6/28/2020855 MB4029
6/26/20201.1 GB382
6/17/20201.8 GB3824
Yesterday496 MB366
Yesterday999 MB349
Yesterday1.4 GB347
Yesterday914 MB345