Extraction 2020 NF WEB-DL 1080p SeleZen

Torrent Details


Extraction 2020 NF WEB-DL 1080p<span style=color:#fc9c6d> seleZen</span>

NAME
Extraction 2020 NF WEB-DL 1080p seleZen.torrent
CATEGORY
Movies
INFOHASH
c751766993b577799047b56297ec41a8ef19309c
SIZE
5.6 GB in 1 file
ADDED
Uploaded on 24-04-2020 by our crawler pet called "Spidey".
SWARM
0 seeders & 0 peers
RATING
No votes yet.

Please login to vote for this torrent.


Description

Информация о фильме

Название: Тайлер Рейк: Операция по спасению / Эвакуация

Оригинальное название: Extraction

Год выхода: 2020

Жанр: Боевик

Режиссер: Сэм Харгрейв

В ролях: Крис Хемсворт, Голшифте Фарахани, Дэвид Харбор, Рудракш Джайсвал, Рандип Худа, Панкадж Трипати, Крис Джай Алекс, Прияншу Пайнюли, Шатаф Фигар, Патрик Ньюэлл







О фильме: Наёмнику Тайлеру Рэйку поручают освободить сына международного преступника. Мальчик — пешка в войне двух наркобаронов, и его держат в заложниках в городе Дакка, столице государства Бангладеш и одном из самых неприступных мест в мире.



Страна: США

Студия: India Take One Productions, Russo Brothers, T.G.I.M Films, Thematic Entertainment

Продолжительность: 01:57:26

Перевод: Дублированный | Netflix



Качество: WEB-DL 1080p

Видео: MPEG-4 AVC, 1920x1080, 4870 Kbit/s, 24 fps

Аудио #01: 48 kHz, AC3, 5.1, 640 Kbps | Дублированный | RUS |

Аудио #02: 48 kHz, E-AC3, 5.1, 640 Kbps | Дублированный | RUS |

Аудио #03: 48 kHz, AC3 + Atmos, 5.1, 768 Kbps | Оригинал | ENG |

Субтитры: Русские (Forced, full), английские







MIGeneral

Unique ID : 210784710502960439649091711028523067280 (0x9E93A8988BBB6C3163A5126E1DFE6790)

Complete name : E:Video111Extraction.2020.NF.WEB-DL.1080p.seleZen.mkv

Format : Matroska

Format version : Version 4

File size : 5.62 GiB

Duration : 1 h 57 min

Overall bit rate mode : Variable

Overall bit rate : 6 850 kb/s

Movie name : Extraction 2020 from селезень

Encoded date : UTC 2020-04-24 07:48:16

Writing application : mkvmerge v40.0.0 ('Old Town Road + Pony') 64-bit

Writing library : libebml v1.3.9 + libmatroska v1.5.2



Video

ID : 1

Format : AVC

Format/Info : Advanced Video Codec

Format profile : [email protected]

Format settings : CABAC / 3 Ref Frames

Format settings, CABAC : Yes

Format settings, Reference : 3 frames

Codec ID : V_MPEG4/ISO/AVC

Duration : 1 h 57 min

Bit rate mode : Variable

Bit rate : 4 870 kb/s

Maximum bit rate : 7 305 kb/s

Width : 1 920 pixels

Height : 1 080 pixels

Display aspect ratio : 16:9

Frame rate mode : Constant

Frame rate : 24.000 FPS

Color space : YUV

Chroma subsampling : 4:2:0

Bit depth : 8 bits

Scan type : Progressive

Bits/(Pixel*Frame) : 0.098

Stream size : 3.94 GiB (70%)

Writing library : x264 core 148 r2717 0d2410d

Encoding settings : cabac=1 / ref=3 / deblock=1:0:0 / analyse=0x1:0x111 / me=umh / subme=10 / psy=1 / psy_rd=1.00:0.00 / mixed_ref=1 / me_range=24 / chroma_me=1 / trellis=2 / 8x8dct=0 / cqm=0 / deadzone=21,11 / fast_pskip=1 / chroma_qp_offset=-2 / threads=6 / lookahead_threads=1 / sliced_threads=0 / nr=0 / decimate=1 / interlaced=0 / bluray_compat=0 / stitchable=1 / constrained_intra=0 / bframes=2 / b_pyramid=0 / b_adapt=2 / b_bias=0 / direct=3 / weightb=1 / open_gop=0 / weightp=2 / keyint=250 / keyint_min=24 / scenecut=0 / intra_refresh=0 / rc_lookahead=48 / rc=2pass / mbtree=1 / bitrate=4870 / ratetol=1.0 / qcomp=0.50 / qpmin=6 / qpmax=51 / qpstep=4 / cplxblur=20.0 / qblur=0.5 / vbv_maxrate=7305 / vbv_bufsize=9740 / nal_hrd=vbr / filler=0 / ip_ratio=1.40 / aq=1:1.00

Language : English

Default : Yes

Forced : No



Audio #1

ID : 2

Format : AC-3

Format/Info : Audio Coding 3

Commercial name : Dolby Digital

Codec ID : A_AC3

Duration : 1 h 57 min

Bit rate mode : Constant

Bit rate : 640 kb/s

Channel(s) : 6 channels

Channel layout : L R C LFE Ls Rs

Sampling rate : 48.0 kHz

Frame rate : 31.250 FPS (1536 SPF)

Compression mode : Lossy

Stream size : 538 MiB (9%)

Title : Dub

Language : Russian

Service kind : Complete Main

Default : Yes

Forced : Yes



Audio #2

ID : 3

Format : E-AC-3

Format/Info : Enhanced AC-3

Commercial name : Dolby Digital Plus

Codec ID : A_EAC3

Duration : 1 h 57 min

Bit rate mode : Constant

Bit rate : 640 kb/s

Channel(s) : 6 channels

Channel layout : L R C LFE Ls Rs

Sampling rate : 48.0 kHz

Frame rate : 31.250 FPS (1536 SPF)

Compression mode : Lossy

Stream size : 538 MiB (9%)

Title : Dub

Language : Russian

Service kind : Complete Main

Default : No

Forced : No



Audio #3

ID : 4

Format : E-AC-3 JOC

Format/Info : Enhanced AC-3 with Joint Object Coding

Commercial name : Dolby Digital Plus with Dolby Atmos

Codec ID : A_EAC3

Duration : 1 h 57 min

Bit rate mode : Constant

Bit rate : 768 kb/s

Channel(s) : 6 channels

Channel layout : L R C LFE Ls Rs

Sampling rate : 48.0 kHz

Frame rate : 31.250 FPS (1536 SPF)

Compression mode : Lossy

Stream size : 645 MiB (11%)

Title : Original

Language : English

Service kind : Complete Main

Default : No

Forced : No

Complexity index : 16

Number of dynamic objects : 15

Bed channel count : 1 channel

Bed channel configuration : LFE



Text #1

ID : 5

Format : UTF-8

Codec ID : S_TEXT/UTF8

Codec ID/Info : UTF-8 Plain Text

Duration : 1 h 55 min

Bit rate : 7 b/s

Count of elements : 178

Stream size : 6.48 KiB (0%)

Title : Forced

Language : Russian

Default : Yes

Forced : Yes



Text #2

ID : 6

Format : UTF-8

Codec ID : S_TEXT/UTF8

Codec ID/Info : UTF-8 Plain Text

Duration : 1 h 55 min

Bit rate : 31 b/s

Count of elements : 675

Stream size : 26.3 KiB (0%)

Title : Full

Language : Russian

Default : No

Forced : No



Text #3

ID : 7

Format : UTF-8

Codec ID : S_TEXT/UTF8

Codec ID/Info : UTF-8 Plain Text

Duration : 1 h 22 min

Bit rate : 6 b/s

Count of elements : 167

Stream size : 3.83 KiB (0%)

Title : FORCED

Language : English

Default : No

Forced : No



Text #4

ID : 8

Format : UTF-8

Codec ID : S_TEXT/UTF8

Codec ID/Info : UTF-8 Plain Text

Duration : 1 h 39 min

Bit rate : 34 b/s

Count of elements : 925

Stream size : 24.9 KiB (0%)

Title : Full

Language : English

Default : No

Forced : No



Релиз от:



Discussion

Comments 0

Post Your Comment

Files in this torrent

FILENAMESIZE
Extraction.2020.NF.WEB-DL.1080p.seleZen.mkv5.6 GB

Alternative Torrents for 'Extraction NF'.

TORRENT NAMEADDEDSIZESEEDSPEERSHEALTH
5/23/20201.5 GB00
5/21/20203.1 GB00
5/17/20201.6 GB00
5/12/20205.6 GB00
5/9/20204.4 GB00
5/5/202014.1 GB00
5/4/20203.7 GB00
5/1/20204.5 GB00
5/1/20204.6 GB00
5/1/202014.3 GB00
5/1/202013.2 GB00
5/1/202013.2 GB00
4/27/20203.9 GB00
4/26/202013.5 GB00
4/26/2020485 MB00