Extraction (2020) 1080p NF WEB-DL - UNTOUCHED - Org (DD 5.1 - 192Kbps) [Hindi + Tel + Tam + Eng] - 2.6GB - ESub - MovCr

Torrent Details


 Extraction (2020) 1080p NF WEB-DL - UNTOUCHED - Org (DD 5.1 - 192Kbps) [Hindi + Tel + Tam + Eng] - 2.6GB - ESub <span style=color:#fc9c6d>- MovCr</span>

NAME
Extraction (2020) 1080p NF WEB-DL - UNTOUCHED - Org (DD 5.1 - 192Kbps) [Hindi + Tel + Tam + Eng] - 2.6GB - ESub - MovCr.torrent
CATEGORY
Movies
INFOHASH
56f648b8611109e891668ccad655c2646e74d340
SIZE
2.5 GB in 1 file
ADDED
Uploaded on 24-04-2020 by our crawler pet called "Spidey".
SWARM
0 seeders & 0 peers
RATING
No votes yet.

Please login to vote for this torrent.


Description

Visit Our Site https://MovCr.to



Extraction (2020) 1080p NF WEB-DL - UNTOUCHED - Org (DD+5.1 - 192Kbps) [Hindi + Tel + Tam + Eng] - 2.6GB - ESub - MovCr







Media Info :



Video

ID                                       : 1

Format                                   : AVC

Format/Info                              : Advanced Video Codec

Format profile                           : [email protected]

Format settings                          : CABAC / 3 Ref Frames

Format settings, CABAC                   : Yes

Format settings, RefFrames               : 3 frames

Codec ID                                 : V_MPEG4/ISO/AVC

Duration                                 : 1 h 57 min

Bit rate mode                            : Variable

Bit rate                                 : 2 370 kb/s

Maximum bit rate                         : 3 555 kb/s

Width                                    : 1 920 pixels

Height                                   : 1 080 pixels

Display aspect ratio                     : 16:9

Frame rate mode                          : Constant

Frame rate                               : 24.000 FPS

Color space                              : YUV

Chroma subsampling                       : 4:2:0

Bit depth                                : 8 bits

Scan type                                : Progressive

Bits/(Pixel*Frame)                       : 0.048

Stream size                              : 1.92 GiB (75%)



Audio #1

ID                                       : 2

Format                                   : E-AC-3

Format/Info                              : Enhanced Audio Coding 3

Codec ID                                 : A_EAC3

Duration                                 : 1 h 57 min

Bit rate mode                            : Constant

Bit rate                                 : 192 kb/s

Channel(s)                               : 6 channels

Channel positions                        : Front: L C R, Side: L R, LFE

Sampling rate                            : 48.0 kHz

Frame rate                               : 187.500 FPS (256 SPF)

Compression mode                         : Lossy

Stream size                              : 161 MiB (6%)



Audio #2

ID                                       : 3

Format                                   : E-AC-3

Format/Info                              : Enhanced Audio Coding 3

Codec ID                                 : A_EAC3

Duration                                 : 1 h 57 min

Bit rate mode                            : Constant

Bit rate                                 : 192 kb/s

Channel(s)                               : 6 channels

Channel positions                        : Front: L C R, Side: L R, LFE

Sampling rate                            : 48.0 kHz

Frame rate                               : 187.500 FPS (256 SPF)

Compression mode                         : Lossy

Stream size                              : 161 MiB (6%)



Audio #3

ID                                       : 4

Format                                   : E-AC-3

Format/Info                              : Enhanced Audio Coding 3

Codec ID                                 : A_EAC3

Duration                                 : 1 h 57 min

Bit rate mode                            : Constant

Bit rate                                 : 192 kb/s

Channel(s)                               : 6 channels

Channel positions                        : Front: L C R, Side: L R, LFE

Sampling rate                            : 48.0 kHz

Frame rate                               : 187.500 FPS (256 SPF)

Compression mode                         : Lossy

Stream size                              : 161 MiB (6%)



Audio #4

ID                                       : 5

Format                                   : E-AC-3

Format/Info                              : Enhanced Audio Coding 3

Codec ID                                 : A_EAC3

Duration                                 : 1 h 57 min

Bit rate mode                            : Constant

Bit rate                                 : 192 kb/s

Channel(s)                               : 6 channels

Channel positions                        : Front: L C R, Side: L R, LFE

Sampling rate                            : 48.0 kHz

Frame rate                               : 187.500 FPS (256 SPF)

Compression mode                         : Lossy

Stream size                              : 161 MiB (6%)



Text #1

ID                                       : 6

Format                                   : UTF-8

Codec ID                                 : S_TEXT/UTF8

Codec ID/Info                            : UTF-8 Plain Text

Duration                                 : 1 h 22 min

Bit rate                                 : 6 b/s

Count of elements                        : 167

Stream size                              : 3.76 KiB (0%)















Discussion

Comments 0

Post Your Comment

Files in this torrent

FILENAMESIZE
www.MovCr.to - Extraction (2020) 1080p NF WEB-DL -Multi (DD+5.1 - 192Kbps) - ESub - MovCr.mkv2.5 GB

Alternative Torrents for 'Extraction NF UNTOUCHED Org DD Hindi Tel Tam Eng ESub'.

TORRENT NAMEADDEDSIZESEEDSPEERSHEALTH
4/24/20202.5 GB00