Extraction (2020) 720p NF WEB-DL Org (DD 5.1 - 192Kbps) [Hindi + Tel + Tam + Eng] - 2.1GB - MSub - MovCr

Torrent Details

 Extraction (2020) 720p NF WEB-DL Org (DD 5.1 - 192Kbps) [Hindi + Tel + Tam + Eng] - 2.1GB - MSub <span style=color:#fc9c6d>- MovCr</span> Extraction (2020) 720p NF WEB-DL Org (DD 5.1 - 192Kbps) [Hindi + Tel + Tam + Eng] - 2.1GB - MSub <span style=color:#fc9c6d>- MovCr</span>

NAME
Extraction (2020) 720p NF WEB-DL Org (DD 5.1 - 192Kbps) [Hindi + Tel + Tam + Eng] - 2.1GB - MSub - MovCr.torrent
CATEGORY
Movies
INFOHASH
7e18f18fd996e2af9c61f02f14ab4f3cdb10adef
SIZE
2.1 GB in 1 file
ADDED
Uploaded on 24-04-2020 by our crawler pet called "Spidey".
SWARM
0 seeders & 0 peers
RATING
No votes yet.

Please login to vote for this torrent.


Description

Visit https://MovCr.to





Extraction (2020) 720p NF WEB-DL Org (DD+5.1 - 192Kbps) [Hindi + Tel + Tam + Eng] - 2.1GB - MSub - MovCr











Media Info :



Video

ID                                       : 1

Format                                   : AVC

Format/Info                              : Advanced Video Codec

Format profile                           : [email protected]

Format settings                          : CABAC / 3 Ref Frames

Format settings, CABAC                   : Yes

Format settings, RefFrames               : 3 frames

Codec ID                                 : V_MPEG4/ISO/AVC

Duration                                 : 1 h 57 min

Bit rate mode                            : Variable

Bit rate                                 : 1 870 kb/s

Maximum bit rate                         : 2 805 kb/s

Width                                    : 1 280 pixels

Height                                   : 720 pixels

Display aspect ratio                     : 16:9

Frame rate mode                          : Constant

Frame rate                               : 24.000 FPS

Color space                              : YUV

Chroma subsampling                       : 4:2:0

Bit depth                                : 8 bits

Scan type                                : Progressive

Bits/(Pixel*Frame)                       : 0.085

Stream size                              : 1.51 GiB (70%)



Audio #1

ID                                       : 2

Format                                   : E-AC-3

Format/Info                              : Enhanced Audio Coding 3

Codec ID                                 : A_EAC3

Duration                                 : 1 h 57 min

Bit rate mode                            : Constant

Bit rate                                 : 192 kb/s

Channel(s)                               : 6 channels

Channel positions                        : Front: L C R, Side: L R, LFE

Sampling rate                            : 48.0 kHz

Frame rate                               : 187.500 FPS (256 SPF)

Compression mode                         : Lossy

Stream size                              : 161 MiB (7%)



Audio #2

ID                                       : 3

Format                                   : E-AC-3

Format/Info                              : Enhanced Audio Coding 3

Codec ID                                 : A_EAC3

Duration                                 : 1 h 57 min

Bit rate mode                            : Constant

Bit rate                                 : 192 kb/s

Channel(s)                               : 6 channels

Channel positions                        : Front: L C R, Side: L R, LFE

Sampling rate                            : 48.0 kHz

Frame rate                               : 187.500 FPS (256 SPF)

Compression mode                         : Lossy

Stream size                              : 161 MiB (7%)



Audio #3

ID                                       : 4

Format                                   : E-AC-3

Format/Info                              : Enhanced Audio Coding 3

Codec ID                                 : A_EAC3

Duration                                 : 1 h 57 min

Bit rate mode                            : Constant

Bit rate                                 : 192 kb/s

Channel(s)                               : 6 channels

Channel positions                        : Front: L C R, Side: L R, LFE

Sampling rate                            : 48.0 kHz

Frame rate                               : 187.500 FPS (256 SPF)

Compression mode                         : Lossy

Stream size                              : 161 MiB (7%)



Audio #4

ID                                       : 5

Format                                   : E-AC-3

Format/Info                              : Enhanced Audio Coding 3

Codec ID                                 : A_EAC3

Duration                                 : 1 h 57 min

Bit rate mode                            : Constant

Bit rate                                 : 192 kb/s

Channel(s)                               : 6 channels

Channel positions                        : Front: L C R, Side: L R, LFE

Sampling rate                            : 48.0 kHz

Frame rate                               : 187.500 FPS (256 SPF)

Compression mode                         : Lossy

Stream size                              : 161 MiB (7%)



Text #1

ID                                       : 6

Format                                   : UTF-8

Codec ID                                 : S_TEXT/UTF8

Codec ID/Info                            : UTF-8 Plain Text

Duration                                 : 1 h 22 min

Bit rate                                 : 6 b/s

Count of elements                        : 167

Stream size                              : 3.76 KiB (0%)



Discussion

Comments 0

Post Your Comment

Files in this torrent

FILENAMESIZE
www.MovCr.to - EXTRACTION (2020) 720p NF WEB-DL Multi Org (DD+5.1 - 192Kbps) - 2.1GB - MSub - MovCr.mkv2.1 GB

Alternative Torrents for 'Extraction NF Org DD Hindi Tel Tam Eng MSub'.

TORRENT NAMEADDEDSIZESEEDSPEERSHEALTH
4/24/20202.1 GB00