Extraction 2020 NF WEB-DL 1080p HDR SeleZen

Torrent Details


Extraction 2020 NF WEB-DL 1080p HDR<span style=color:#fc9c6d> seleZen</span>

NAME
Extraction 2020 NF WEB-DL 1080p HDR seleZen.torrent
CATEGORY
Movies
INFOHASH
17e807a49e38ea87be7035038338b8c90ef03127
SIZE
5.5 GB in 1 file
ADDED
Uploaded on 24-04-2020 by our crawler pet called "Spidey".
SWARM
0 seeders & 0 peers
RATING
No votes yet.

Please login to vote for this torrent.


Description

Информация о фильме

Название: Тайлер Рейк: Операция по спасению / Эвакуация

Оригинальное название: Extraction

Год выхода: 2020

Жанр: Боевик

Режиссер: Сэм Харгрейв

В ролях: Крис Хемсворт, Голшифте Фарахани, Дэвид Харбор, Рудракш Джайсвал, Рандип Худа, Панкадж Трипати, Крис Джай Алекс, Прияншу Пайнюли, Шатаф Фигар, Патрик Ньюэлл







О фильме: Наёмнику Тайлеру Рэйку поручают освободить сына международного преступника. Мальчик — пешка в войне двух наркобаронов, и его держат в заложниках в городе Дакка, столице государства Бангладеш и одном из самых неприступных мест в мире.



Страна: США

Студия: India Take One Productions, Russo Brothers, T.G.I.M Films, Thematic Entertainment

Продолжительность: 01:57:26

Перевод: Дублированный | Netflix



Качество: WEB-DL 1080p

Видео: 1920x1080 at 24.000 fps, MPEG-H HEVC HDR Video, 4700 kbps avg

Аудио #01: 48 kHz, AC3, 5.1, 640 Kbps | Дублированный | RUS |

Аудио #02: 48 kHz, E-AC3, 5.1, 640 Kbps | Дублированный | RUS |

Аудио #03: 48 kHz, AC3 + Atmos, 5.1, 768 Kbps | Оригинал | ENG |

Субтитры: Русские (Forced, full), английские







MIGeneral

Unique ID : 11472572285467820427795710735953501689 (0x8A1897C221C290EE63E2AFA17C51DF9)

Complete name : E:Video111Extraction.2020.NF.WEB-DL.1080p.HDR.seleZen.mkv

Format : Matroska

Format version : Version 4

File size : 5.49 GiB

Duration : 1 h 57 min

Overall bit rate : 6 693 kb/s

Movie name : Extraction 2020 from селезень

Encoded date : UTC 2020-04-24 08:20:51

Writing application : mkvmerge v40.0.0 ('Old Town Road + Pony') 64-bit

Writing library : libebml v1.3.9 + libmatroska v1.5.2



Video

ID : 1

Format : HEVC

Format/Info : High Efficiency Video Coding

Format profile : Main [email protected]@Main

HDR format : SMPTE ST 2086, HDR10 compatible

Codec ID : V_MPEGH/ISO/HEVC

Duration : 1 h 56 min

Bit rate : 4 700 kb/s

Width : 1 920 pixels

Height : 1 080 pixels

Display aspect ratio : 16:9

Frame rate mode : Constant

Frame rate : 24.000 FPS

Color space : YUV

Chroma subsampling : 4:2:0 (Type 2)

Bit depth : 10 bits

Bits/(Pixel*Frame) : 0.094

Stream size : 3.81 GiB (69%)

Language : English

Default : Yes

Forced : No

Color range : Limited

Color primaries : BT.2020

Transfer characteristics : PQ

Matrix coefficients : BT.2020 non-constant

Mastering display color pri : Display P3

Mastering display luminance : min: 0.0001 cd/m2, max: 1000 cd/m2

Maximum Content Light Level : 2873 cd/m2

Maximum Frame-Average Light : 482 cd/m2



Audio #1

ID : 2

Format : AC-3

Format/Info : Audio Coding 3

Commercial name : Dolby Digital

Codec ID : A_AC3

Duration : 1 h 57 min

Bit rate mode : Constant

Bit rate : 640 kb/s

Channel(s) : 6 channels

Channel layout : L R C LFE Ls Rs

Sampling rate : 48.0 kHz

Frame rate : 31.250 FPS (1536 SPF)

Compression mode : Lossy

Stream size : 538 MiB (10%)

Title : Dub

Language : Russian

Service kind : Complete Main

Default : Yes

Forced : Yes



Audio #2

ID : 3

Format : E-AC-3

Format/Info : Enhanced AC-3

Commercial name : Dolby Digital Plus

Codec ID : A_EAC3

Duration : 1 h 57 min

Bit rate mode : Constant

Bit rate : 640 kb/s

Channel(s) : 6 channels

Channel layout : L R C LFE Ls Rs

Sampling rate : 48.0 kHz

Frame rate : 31.250 FPS (1536 SPF)

Compression mode : Lossy

Stream size : 538 MiB (10%)

Title : Dub

Language : Russian

Service kind : Complete Main

Default : No

Forced : No



Audio #3

ID : 4

Format : E-AC-3 JOC

Format/Info : Enhanced AC-3 with Joint Object Coding

Commercial name : Dolby Digital Plus with Dolby Atmos

Codec ID : A_EAC3

Duration : 1 h 57 min

Bit rate mode : Constant

Bit rate : 768 kb/s

Channel(s) : 6 channels

Channel layout : L R C LFE Ls Rs

Sampling rate : 48.0 kHz

Frame rate : 31.250 FPS (1536 SPF)

Compression mode : Lossy

Stream size : 645 MiB (11%)

Title : Original

Language : English

Service kind : Complete Main

Default : No

Forced : No

Complexity index : 16

Number of dynamic objects : 15

Bed channel count : 1 channel

Bed channel configuration : LFE



Text #1

ID : 5

Format : UTF-8

Codec ID : S_TEXT/UTF8

Codec ID/Info : UTF-8 Plain Text

Duration : 1 h 55 min

Bit rate : 7 b/s

Count of elements : 178

Stream size : 6.48 KiB (0%)

Title : Forced

Language : Russian

Default : Yes

Forced : Yes



Text #2

ID : 6

Format : UTF-8

Codec ID : S_TEXT/UTF8

Codec ID/Info : UTF-8 Plain Text

Duration : 1 h 55 min

Bit rate : 31 b/s

Count of elements : 675

Stream size : 26.3 KiB (0%)

Title : Full

Language : Russian

Default : No

Forced : No



Text #3

ID : 7

Format : UTF-8

Codec ID : S_TEXT/UTF8

Codec ID/Info : UTF-8 Plain Text

Duration : 1 h 22 min

Bit rate : 6 b/s

Count of elements : 167

Stream size : 3.83 KiB (0%)

Title : FORCED

Language : English

Default : No

Forced : No



Text #4

ID : 8

Format : UTF-8

Codec ID : S_TEXT/UTF8

Codec ID/Info : UTF-8 Plain Text

Duration : 1 h 39 min

Bit rate : 34 b/s

Count of elements : 925

Stream size : 24.9 KiB (0%)

Title : Full

Language : English

Default : No

Forced : No







Релиз от:



Discussion

Comments 0

Post Your Comment

Files in this torrent

FILENAMESIZE
Extraction.2020.NF.WEB-DL.1080p.HDR.seleZen.mkv5.5 GB

Alternative Torrents for 'Extraction NF HDR'.

TORRENT NAMEADDEDSIZESEEDSPEERSHEALTH
5/9/20204.4 GB00
5/5/202014.1 GB00
5/1/202014.3 GB00
5/1/202013.2 GB00
5/1/202013.2 GB00
4/24/20205.5 GB00
4/24/20204.4 GB00