Extraction 2020 WebRip 1080p Hindi English DD 5.1 X264 ESub - MkvCinemas [Telly]

Torrent Details


Extraction 2020 WebRip 1080p Hindi English DD 5.1 x264 ESub - mkvCinemas [Telly]

NAME
Extraction 2020 WebRip 1080p Hindi English DD 5.1 x264 ESub - mkvCinemas [Telly].torrent
CATEGORY
Movies
INFOHASH
5bbe227f996a7df2ce38e34a3c5b98a4e9cbac71
SIZE
3.9 GB in 1 file
ADDED
Uploaded on 24-04-2020 by our crawler pet called "Spidey".
SWARM
0 seeders & 0 peers
RATING
No votes yet.

Please login to vote for this torrent.


Description

कोरोना से बचाव:

घर पर फिल्में देखें। घर में रहें, सुरक्षित रहें। सरकार द्वारा दिए गए सभी दिशानिर्देशों और सावधानियों का जरूर पालन करें।



Fight Corona:

Watch movies at home. Stay Home, Stay Safe. Must Follow All the guidelines and precautions advised by the Government.















********************************



Extraction 2020 WebRip 1080p Hindi English DD 5.1 x264 ESub - mkvCinemas [Telly]



********************************



Mediainfo:-

Format                      : Matroska

Format version              : Version 2

File size                   : 3.92 GiB

Duration                    : 1h 57mn

Overall bit rate mode       : Variable

Overall bit rate            : 4 779 Kbps





Video

ID                          : 1

Format                      : AVC

Format/Info                 : Advanced Video Codec

Format profile              : [email protected]

Format settings, CABAC      : Yes

Format settings, ReFrames   : 4 frames

Muxing mode                 : Header stripping

Codec ID                    : V_MPEG4/ISO/AVC

Duration                    : 1h 57mn

Bit rate mode               : Variable

Bit rate                    : 3 500 Kbps

Maximum bit rate            : 62.5 Mbps

Width                       : 1 920 pixels

Height                      : 800 pixels

Display aspect ratio        : 2.40:1

Frame rate mode             : Constant

Frame rate                  : 24.000 fps

Color space                 : YUV





Audio #1

ID                          : 2

Format                      : AC-3

Format/Info                 : Audio Coding 3

Mode extension              : CM (complete main)

Format settings, Endianness : Big

Muxing mode                 : Header stripping

Codec ID                    : A_AC3

Duration                    : 1h 57mn

Bit rate mode               : Constant

Bit rate                    : 640 Kbps

Channel(s)                  : 6 channels

Channel positions           : Front: L C R, Side: L R, LFE

Sampling rate               : 48.0 KHz

Bit depth                   : 16 bits

Compression mode            : Lossy

Stream size                 : 538 MiB (13%)

Title                       : mkvCinemas

Language                    : Hindi

Default                     : Yes

Forced                      : No



Audio #2

ID                          : 3

Format                      : AC-3

Format/Info                 : Audio Coding 3

Mode extension              : CM (complete main)

Format settings, Endianness : Big

Muxing mode                 : Header stripping

Codec ID                    : A_AC3

Duration                    : 1h 57mn

Bit rate mode               : Constant

Bit rate                    : 640 Kbps

Channel(s)                  : 6 channels

Channel positions           : Front: L C R, Side: L R, LFE

Sampling rate               : 48.0 KHz

Bit depth                   : 16 bits

Compression mode            : Lossy

Stream size                 : 538 MiB (13%)

Title                       : mkvCinemas

Language                    : English

Default                     : No

Forced                      : No



Text

ID                          : 4

Format                      : UTF-8

Codec ID                    : S_TEXT/UTF8

Codec ID/Info               : UTF-8 Plain Text

Title                       : mkvCinemas

Language                    : English

Default                     : Yes

Forced                      : No







********************************



We don't add Watermark or Audio Tags.

Wherever you Share our Stuffs, Give Proper Credit to "mkvCinemas @Team Telly"

We Keep All Torrents. In case of re-seed, please pm.



********************************

















********************************







********************************

Discussion

Comments 0

Post Your Comment

Files in this torrent

FILENAMESIZE
Extraction 2020 WebRip 1080p Hindi English DD 5.1 x264 ESub - mkvCinemas [Telly].mkv3.9 GB

Alternative Torrents for 'Extraction Hindi English DD ESub mkvCinemas Telly'.

TORRENT NAMEADDEDSIZESEEDSPEERSHEALTH
4/24/20203.9 GB00