Extraction (2020) 1080p WEB-DL H264 Hindi DD 5.1 - English Atmos DDP5 1] - ESUBS ~ Ranvijay - DUS-ICTV

Torrent Details


Extraction (2020) 1080p WEB-DL H264 Hindi DD 5.1 - English Atmos DDP5 1] - ESUBS ~ Ranvijay - DUS-ICTV

NAME
Extraction (2020) 1080p WEB-DL H264 Hindi DD 5.1 - English Atmos DDP5 1] - ESUBS ~ Ranvijay - DUS-ICTV.torrent
CATEGORY
Movies
INFOHASH
5dfd904d0e0aa83dab452dd9f946e95bc8b381c4
SIZE
5.1 GB in 1 file
ADDED
Uploaded on 24-04-2020 by our crawler pet called "Spidey".
SWARM
0 seeders & 0 peers
RATING
No votes yet.

Please login to vote for this torrent.


Description

Extraction (2020) 1080p WEB-DL H264 Hindi DD5.1 - English Atmos DDP5.1] - ESUBS ~ Ranvijay - DUS-ICTV

Video Source :-                   NTG
General
Format                                   : Matroska
Format version                           : Version 4
File size                                : 5.09 GiB
Duration                                 : 1 h 57 min
Overall bit rate mode                    : Variable
Overall bit rate                         : 6 210 kb/s
Movie name                               : Extraction (2020) 1080p WEB-DL H264 Hindi DD5.1 - English Atmos DDP5.1] - ESUBS ~ Ranvijay - DUS-ICTV

Video
ID                                       : 1
Format                                   : AVC
Format/Info                              : Advanced Video Codec
Format profile                           : [email protected]
Format settings                          : CABAC / 3 Ref Frames
Format settings, CABAC                   : Yes
Format settings, Reference frames        : 3 frames
Codec ID                                 : V_MPEG4/ISO/AVC
Duration                                 : 1 h 57 min
Bit rate mode                            : Variable
Bit rate                                 : 4 870 kb/s
Maximum bit rate                         : 7 305 kb/s
Width                                    : 1 920 pixels
Height                                   : 1 080 pixels
Display aspect ratio                     : 16:9
Frame rate mode                          : Constant
Frame rate                               : 24.000 FPS
Color space                              : YUV
Chroma subsampling                       : 4:2:0
Bit depth                                : 8 bits
Scan type                                : Progressive
Bits/(Pixel*Frame)                       : 0.098
Stream size                              : 3.94 GiB (77%)
Title                                    : ~Ranvijay~
Language                                 : English
Default                                  : Yes
Forced                                   : No

Audio #1
ID                                       : 2
Format                                   : AC-3
Format/Info                              : Audio Coding 3
Commercial name                          : Dolby Digital
Codec ID                                 : A_AC3
Duration                                 : 1 h 57 min
Bit rate mode                            : Constant
Bit rate                                 : 640 kb/s
Channel(s)                               : 6 channels
Channel layout                           : L R C LFE Ls Rs
Sampling rate                            : 48.0 kHz
Frame rate                               : 31.250 FPS (1536 SPF)
Compression mode                         : Lossy
Stream size                              : 538 MiB (10%)
Title                                    : ~Ranvijay~
Language                                 : Hindi
Service kind                             : Complete Main
Default                                  : Yes
Forced                                   : Yes

Audio #2
ID                                       : 3
Format                                   : E-AC-3 JOC
Format/Info                              : Enhanced AC-3 with Joint Object Coding
Commercial name                          : Dolby Digital Plus with Dolby Atmos
Codec ID                                 : A_EAC3
Duration                                 : 1 h 57 min
Bit rate mode                            : Constant
Bit rate                                 : 768 kb/s
Channel(s)                               : 6 channels
Channel layout                           : L R C LFE Ls Rs
Sampling rate                            : 48.0 kHz
Frame rate                               : 31.250 FPS (1536 SPF)
Compression mode                         : Lossy
Stream size                              : 645 MiB (12%)
Title                                    : ~Ranvijay~
Language                                 : English
Service kind                             : Complete Main
Default                                  : No
Forced                                   : No
Complexity index                         : 16
Number of dynamic objects                : 15
Bed channel count                        : 1 channel
Bed channel configuration                : LFE

Text #1
ID                                       : 4
Format                                   : UTF-8
Codec ID                                 : S_TEXT/UTF8
Codec ID/Info                            : UTF-8 Plain Text
Duration                                 : 1 h 39 min
Bit rate                                 : 34 b/s
Count of elements                        : 925
Stream size                              : 24.9 KiB (0%)
Title                                    : ~Ranvijay~
Language                                 : English
Default                                  : Yes
Forced                                   : Yes

Text #2
ID                                       : 5
Format                                   : UTF-8
Codec ID                                 : S_TEXT/UTF8
Codec ID/Info                            : UTF-8 Plain Text
Duration                                 : 1 h 22 min
Bit rate                                 : 6 b/s
Count of elements                        : 167
Stream size                              : 3.83 KiB (0%)
Title                                    : ~Ranvijay~
Language                                 : English
Default                                  : No
Forced                                   : Yes











Discussion

Comments 0

Post Your Comment

Files in this torrent

FILENAMESIZE
Extraction (2020) 1080p WEB-DL H264 Hindi DD5.1 - English Atmos DDP5.1] - ESUBS ~ Ranvijay - DUS-ICTV .mkv5.1 GB

Alternative Torrents for 'Extraction Hindi DD English Atmos DDP ESUBS Ranvijay DUSICTV'.

TORRENT NAMEADDEDSIZESEEDSPEERSHEALTH
7/31/20201.1 GB1363335
7/31/20201.1 GB1189276
7/24/2020897 MB76262
7/30/20201009 MB678183
7/30/20201.7 GB513185
7/31/20201.2 GB455106
7/29/2020959 MB45184
7/24/20204 GB42151
8/6/2020184 MB389201
7/31/20201.3 GB35678
8/5/2020910 MB263131
7/31/2020784 MB25936
8/6/2020186 MB235105
7/31/20201.1 GB22163
7/27/20201.3 GB21212