Extraction (2020) 1080p WEB-Rip X264 Dual Audio [Hindi DD 5.1 - English DD 5.1] - MSUBS ~ Ranvijay - DUS-ICTV

Torrent Details


Extraction (2020) 1080p WEB-Rip x264 Dual Audio [Hindi DD 5.1 - English DD 5.1] - MSUBS ~ Ranvijay - DUS-ICTV

NAME
Extraction (2020) 1080p WEB-Rip x264 Dual Audio [Hindi DD 5.1 - English DD 5.1] - MSUBS ~ Ranvijay - DUS-ICTV.torrent
CATEGORY
Movies
INFOHASH
ddd874100f9f6d0ec3302dc964bdce19c6b9a2c8
SIZE
4 GB in 2 files
ADDED
Uploaded on 24-04-2020 by our crawler pet called "Spidey".
SWARM
0 seeders & 0 peers
RATING
No votes yet.

Please login to vote for this torrent.


Description

Extraction (2020) 1080p WEB-Rip x264 Dual Audio [Hindi DD5.1 - English DD5.1] - MSUBS ~ Ranvijay - DUS-ICTV

General
Format : Matroska
Format version : Version 4
File size : 3.93 GiB
Duration : 1 h 57 min
Overall bit rate : 4 785 kb/s
Movie name : Extraction (2020) 1080p WEB-Rip x264 Dual Audio [Hindi DD5.1 - English DD5.1] - MSUBS ~ Ranvijay - DUS-ICTV

Video
ID : 1
Format : AVC
Format/Info : Advanced Video Codec
Format profile : [email protected]
Format settings : CABAC / 5 Ref Frames
Format settings, CABAC : Yes
Format settings, Reference frames : 5 frames
Codec ID : V_MPEG4/ISO/AVC
Duration : 1 h 57 min
Bit rate : 3 847 kb/s
Width : 1 920 pixels
Height : 816 pixels
Display aspect ratio : 2.35:1
Frame rate mode : Constant
Frame rate : 24.000 FPS
Color space : YUV
Chroma subsampling : 4:2:0
Bit depth : 8 bits
Scan type : Progressive
Bits/(Pixel*Frame) : 0.102
Stream size : 3.08 GiB (79%)
Title : ~Ranvijay~
Default : Yes
Forced : No

Audio #1
ID : 2
Format : AC-3
Format/Info : Audio Coding 3
Commercial name : Dolby Digital
Codec ID : A_AC3
Duration : 1 h 57 min
Bit rate mode : Constant
Bit rate : 640 kb/s
Channel(s) : 6 channels
Channel layout : L R C LFE Ls Rs
Sampling rate : 48.0 kHz
Frame rate : 31.250 FPS (1536 SPF)
Compression mode : Lossy
Stream size : 538 MiB (13%)
Title : ~Ranvijay~
Language : Hindi
Service kind : Complete Main
Default : Yes
Forced : Yes

Audio #2
ID : 3
Format : AC-3
Format/Info : Audio Coding 3
Commercial name : Dolby Digital
Codec ID : A_AC3
Duration : 1 h 57 min
Bit rate mode : Constant
Bit rate : 384 kb/s
Channel(s) : 6 channels
Channel layout : L R C LFE Ls Rs
Sampling rate : 48.0 kHz
Frame rate : 31.250 FPS (1536 SPF)
Compression mode : Lossy
Stream size : 323 MiB (8%)
Title : ~Ranvijay~
Language : English
Service kind : Complete Main
Default : No
Forced : No

Subtitles
Language.......: English
Language.......: Arabic
Language.......: Czech
Language.......: Danish
Language.......: German
Language.......: Greek
Language.......: Spanish
Language.......: Finnish
Language.......: French
Language.......: Hebrew
Language.......: Hungarian
Language.......: Indonesian
Language.......: Italian
Language.......: Japanese
Language.......: Korean
Language.......: Norwegian Bokmal
Language.......: Dutch
Language.......: Polish
Language.......: Portuguese
Language.......: Romanian
Language.......: Russian
Language.......: Swedish
Language.......: Thai
Language.......: Turkish
Language.......: Vietnamese
Language.......: Chinese










Discussion

Comments 0

Post Your Comment

Files in this torrent

FILENAMESIZE
Extraction (2020) 1080p WEB-Rip x264 Dual Audio [Hindi DD5.1 - English DD5.1] - MSUBS ~ Ranvijay - DUS-ICTV.mkv3.9 GB
Sample - Extraction (2020) 1080p WEB-Rip x264 Dual Audio [Hindi DD5.1 - English DD5.1] - MSUBS ~ Ranvijay - DUS-ICTV.mkv26.1 MB

Alternative Torrents for 'Extraction Rip Dual Audio Hindi DD English DD . MSUBS Ranvijay DUSICTV'.

There are no alternative torrents found.