Extraction (2020) 1080p 5 1 - 2 0 X264 Phun Psyz

Torrent Details


Extraction (2020) 1080p 5 1 - 2 0 x264 Phun Psyz

NAME
Extraction (2020) 1080p 5 1 - 2 0 x264 Phun Psyz.torrent
CATEGORY
Movies
INFOHASH
1e4dc1e6dbfad15819371e3c6f85fce73dcfffda
SIZE
2.4 GB in 1 file
ADDED
Uploaded on 25-04-2020 by our crawler pet called "Spidey".
SWARM
0 seeders & 0 peers
RATING
No votes yet.

Please login to vote for this torrent.


Description

www.imdb.com/title/tt8936646



Tyler Rake, a fearless black market mercenary, embarks on the most deadly extraction of his career when he's enlisted to rescue the kidnapped son of an imprisoned international crime lord.



Source: METCON (Web)







Format                      : MPEG-4

Format profile              : Base Media / Version 2

Codec ID                    : mp42 (isom/iso2/avc1/mp41)

File size                   : 2.40 GiB

Duration                    : 1 h 57 min

Overall bit rate mode       : Variable

Overall bit rate            : 2 921 kb/s

Writing application         : HandBrake 1.2.0 2018121700



Video

ID                          : 1

Format                      : AVC

Format/Info                 : Advanced Video Codec

Format profile              : [email protected]

Format settings             : CABAC / 1 Ref Frames

Format settings, CABAC      : Yes

Format settings, Reference  : 1 frame

Codec ID                    : avc1

Codec ID/Info               : Advanced Video Coding

Duration                    : 1 h 57 min

Bit rate                    : 2 434 kb/s

Width                       : 1 920 pixels

Height                      : 800 pixels

Display aspect ratio        : 2.40:1

Frame rate mode             : Constant

Frame rate                  : 24.000 FPS

Color space                 : YUV

Chroma subsampling          : 4:2:0

Bit depth                   : 8 bits

Scan type                   : Progressive

Bits/(Pixel*Frame)          : 0.066

Stream size                 : 2.00 GiB (83%)

Writing library             : x264 core 157 r2935 545de2f

Color range                 : Limited

Color primaries             : BT.709

Transfer characteristics    : BT.709

Matrix coefficients         : BT.709

Codec configuration box     : avcC



Audio #1

ID                          : 2

Format                      : AC-3

Format/Info                 : Audio Coding 3

Commercial name             : Dolby Digital

Codec ID                    : ac-3

Duration                    : 1 h 57 min

Bit rate mode               : Constant

Bit rate                    : 320 kb/s

Channel(s)                  : 6 channels

Channel layout              : L R C LFE Ls Rs

Sampling rate               : 48.0 kHz

Frame rate                  : 31.250 FPS (1536 SPF)

Bit depth                   : 16 bits

Compression mode            : Lossy

Stream size                 : 269 MiB (11%)

Title                       : Surround

Language                    : English

Service kind                : Complete Main

Default                     : Yes



Audio #2

ID                          : 3

Format                      : AAC LC

Format/Info                 : Advanced Audio Codec Low Complexity

Codec ID                    : mp4a-40-2

Duration                    : 1 h 57 min

Bit rate mode               : Constant

Bit rate                    : 159 kb/s

Channel(s)                  : 2 channels

Channel layout              : L R

Sampling rate               : 48.0 kHz

Frame rate                  : 46.875 FPS (1024 SPF)

Compression mode            : Lossy

Stream size                 : 133 MiB (5%)

Title                       : Stereo

Language                    : English



Text

Language                    : Czech

Default                     : Yes

Forced                      : No

Language                    : Danish

Language                    : German

Language                    : Greek

Language                    : English

Language                    : Spanish

Language                    : Spanish

Language                    : Finnish

Language                    : French

Language                    : Hungarian

Language                    : Indonesian

Language                    : Italian

Language                    : Norwegian

Language                    : Dutch

Language                    : Polish

Language                    : Portuguese

Language                    : Portuguese

Language                    : Russian

Language                    : Swedish

Language                    : Turkish

Default                     : No

Forced                      : No

Discussion

Comments 0

Post Your Comment

Files in this torrent

FILENAMESIZE
Extraction (2020) 1080p 5.1 - 2.0 x264 Phun Psyz.mp42.4 GB

Alternative Torrents for 'Extraction Phun Psyz'.

TORRENT NAMEADDEDSIZESEEDSPEERSHEALTH
5/2/20203.2 GB00
4/25/20202.4 GB00