Extraction 2020 NF WEB-DLRip(AVC) OlLanDGroup

Torrent Details


Extraction 2020 NF WEB-DLRip(AVC)<span style=color:#fc9c6d> OlLanDGroup</span>

NAME
Extraction 2020 NF WEB-DLRip(AVC) OlLanDGroup.torrent
CATEGORY
Movies
INFOHASH
d0d7a0f4f2cd7e0686eb85aec765a7d974085988
SIZE
745 MB in 1 file
ADDED
Uploaded on 25-04-2020 by our crawler pet called "Spidey".
SWARM
0 seeders & 0 peers
RATING
No votes yet.

Please login to vote for this torrent.


Description

Информация о фильме

Название: Тайлер Рейк: Операция по спасению

Оригинальное название: Extraction

Год выпуска: 2020

Жанр: Боевик

Режиссер: Сэм Харгрейв

В ролях: Крис Хемсворт, Голшифте Фарахани, Дэвид Харбор, Рудракш Джайсвал, Рандип Худа, Панкадж Трипати, Крис Джай Алекс, Прияншу Пайнюли, Шатаф Фигар, Патрик Ньюэлл



О фильме:

Наёмнику Тайлеру Рэйку поручают освободить сына международного преступника. Мальчик — пешка в войне двух наркобаронов, и его держат в заложниках в городе Дакка, столице государства Бангладеш и одном из самых неприступных мест в мире.







Страна: США

Студия: India Take One Productions, Russo Brothers, T.G.I.M Films, Thematic Entertainment

Продолжительность: 01:57:26

Перевод: Дублированный | Пифагор (по заказу Netflix)



Файл

Формат: MKV

Качество: WEB-DLRip-AVC

Источник: |Extraction.2020.NF.WEB-DL.1080p.seleZen|

Видео: 720x300 (2.40:1), 24 fps, x264 ~823 kbps avg, 0.159 bit/pixel

Звук: 48 kHz, HE-AAC, 2 ch, ~64 kbps avg | RUS

Субтитры: Русские (Forced, full), английские



Релиз:



MediaInfo:Format : Matroska

Format version : Version 4

File size : 745 MiB

Duration : 1 h 57 min

Overall bit rate : 887 kb/s

Movie name : Тайлер Рейк: Операция по спасению / Эвакуация / Extraction (2020) WEB-DLRip(AVC) OlLanDGroup#Skandar

Encoded date : UTC 2020-04-25 06:24:55

Writing application : mkvmerge v31.0.0 ('Dolores In A Shoestand') 64-bit

Writing library : libebml v1.3.6 + libmatroska v1.4.9



Video

ID : 1

Format : AVC

Format/Info : Advanced Video Codec

Format profile : [email protected]

Format settings : CABAC / 10 Ref Frames

Format settings, CABAC : Yes

Format settings, ReFrames : 10 frames

Codec ID : V_MPEG4/ISO/AVC

Duration : 1 h 57 min

Bit rate : 823 kb/s

Width : 720 pixels

Height : 300 pixels

Display aspect ratio : 2.40:1

Frame rate mode : Constant

Frame rate : 24.000 FPS

Color space : YUV

Chroma subsampling : 4:2:0

Bit depth : 8 bits

Scan type : Progressive

Bits/(Pixel*Frame) : 0.159

Stream size : 689 MiB (93%)

Title : Тайлер Рейк: Операция по спасению / Эвакуация / Extraction (2020) WEB-DLRip(AVC) OlLanDGroup#Skandar

Writing library : x264 core 146 r2538 121396c

Encoding settings : cabac=1 / ref=10 / deblock=1:-3:-3 / analyse=0x3:0x133 / me=umh / subme=11 / psy=1 / psy_rd=0.97:0.05 / mixed_ref=1 / me_range=48 / chroma_me=1 / trellis=2 / 8x8dct=1 / cqm=0 / deadzone=21,11 / fast_pskip=0 / chroma_qp_offset=-3 / threads=6 / lookahead_threads=1 / sliced_threads=0 / nr=0 / decimate=0 / interlaced=0 / bluray_compat=0 / constrained_intra=0 / bframes=11 / b_pyramid=2 / b_adapt=2 / b_bias=0 / direct=3 / weightb=1 / open_gop=0 / weightp=2 / keyint=240 / keyint_min=23 / scenecut=40 / intra_refresh=0 / rc_lookahead=40 / rc=2pass / mbtree=0 / bitrate=823 / ratetol=1.0 / qcomp=0.60 / qpmin=0 / qpmax=69 / qpstep=4 / cplxblur=20.0 / qblur=0.5 / vbv_maxrate=50000 / vbv_bufsize=62500 / nal_hrd=none / filler=0 / ip_ratio=1.40 / pb_ratio=1.30 / aq=1:1.00

Language : English

Default : Yes

Forced : No



Audio

ID : 2

Format : AAC LC SBR

Format/Info : Advanced Audio Codec Low Complexity with Spectral Band Replication

Commercial name : HE-AAC

Format settings : Explicit

Codec ID : A_AAC-2

Duration : 1 h 57 min

Bit rate : 64.0 kb/s

Channel(s) : 2 channels

Channel layout : L R

Sampling rate : 48.0 kHz

Frame rate : 23.438 FPS (2048 SPF)

Compression mode : Lossy

Delay relative to video : 31 ms

Stream size : 53.8 MiB (7%)

Title : DUB | Пифагор (по заказу Netflix)

Language : Russian

Default : Yes

Forced : No



Text #1

ID : 3

Format : UTF-8

Codec ID : S_TEXT/UTF8

Codec ID/Info : UTF-8 Plain Text

Duration : 1 h 55 min

Bit rate : 7 b/s

Count of elements : 178

Stream size : 6.48 KiB (0%)

Title : Forced

Language : Russian

Default : Yes

Forced : Yes



Text #2

ID : 4

Format : UTF-8

Codec ID : S_TEXT/UTF8

Codec ID/Info : UTF-8 Plain Text

Duration : 1 h 55 min

Bit rate : 31 b/s

Count of elements : 675

Stream size : 26.3 KiB (0%)

Title : Full

Language : Russian

Default : No

Forced : No



Text #3

ID : 5

Format : UTF-8

Codec ID : S_TEXT/UTF8

Codec ID/Info : UTF-8 Plain Text

Duration : 1 h 22 min

Bit rate : 6 b/s

Count of elements : 167

Stream size : 3.83 KiB (0%)

Title : FORCED

Language : English

Default : No

Forced : No



Text #4

ID : 6

Format : UTF-8

Codec ID : S_TEXT/UTF8

Codec ID/Info : UTF-8 Plain Text

Duration : 1 h 39 min

Bit rate : 34 b/s

Count of elements : 925

Stream size : 24.9 KiB (0%)

Title : Full

Language : English

Default : No

Forced : No Скриншоты



Discussion

Comments 0

Post Your Comment

Files in this torrent

FILENAMESIZE
Extraction.2020.NF.WEB-DLRip(AVC).OlLanDGroup.mkv744.8 MB

Alternative Torrents for 'Extraction NF DLRipAVC'.

TORRENT NAMEADDEDSIZESEEDSPEERSHEALTH
7/31/20202.7 GB30152292
7/31/20201.1 GB1639740
7/24/2020897 MB1337345
7/29/20202.7 GB735484
7/31/202023.6 GB515441
7/31/20204.7 GB48268
7/31/2020796 MB468279
7/31/202025.7 GB364119
7/30/20201.1 GB35597
7/31/20209.6 GB290248
7/22/20201.5 GB25651
7/31/202023.6 GB203417
7/22/20201.2 GB19136
7/22/20201.6 GB17338
7/24/20201.6 GB14988