Shakespeare And Hathaway Private Investigators S02 1080p BDRip

Torrent Details

Shakespeare And Hathaway Private Investigators S02 1080p BDRip

NAME
Shakespeare And Hathaway Private Investigators S02 1080p BDRip.torrent
CATEGORY
Television
INFOHASH
6444799113540f65f334cbc1db529f625d60a0b3
SIZE
33.3 GB in 10 files
ADDED
Uploaded on 25-04-2020 by our crawler pet called "Spidey".
SWARM
0 seeders & 0 peers
RATING
No votes yet.

Please login to vote for this torrent.


Description

Информация о фильме

Название: Шекспир и Хэтэуэй: Частные детективы

Оригинальное название: Shakespeare And Hathaway: Private Investigators

Год выхода: 2019

Жанр: Детектив, драма, комедия

Режиссер: Йен Барбер, Мэтт Картер, Гилл Уилкинсон, Дарсия Мартин

В ролях: Марк Бентон, Джо Джойнер, Патрик Уолш МакБрайд, Эмбер Агар, Томос Имс, Даррен Эванс, Джулия Дикин, Роберта Тейлор



О фильме:

Детективы бывают разные. Но, пожалуй, таких, как Шекспир и Хэтэуэй, вы ещё не встречали. До того, как они встретились, оба были неудачниками: Фрэнк Хэтэуэй – бывший инспектор полиции, еле-еле сводящий концы с концами. Он неуклюж и ленив, но наблюдателен и имеет приличный опыт в работе. Луэлла Шекспир – парикмахер, познакомившаяся в интернете с мужчиной, за которого тут же собралась замуж. Будущие напарники встречаются тогда, когда Луэлла нанимает Хэтэуэя для слежки за женихом. В итоге жених убит, полиция подозревает безутешную невесту, а тут ещё и все её деньги пропали… Не без помощи Хэтэуэя, Шекспир выпутывается из этой истории и предлагает ему партнерство. Фрэнку ничего не остаётся, как согласиться на эту авантюру...







Страна: Великобритания

Студия: ВВС

Продолжительность: 10 х ~ 00:44:00

Перевод: Профессиональный (многоголосый закадровый) - TVShows

Перевод субтитров: TrueSeer

Список серий01. Яростный рок | Outrageous Fortune

02. Зрелище – петля | The Play's the Thing

03. Проклятая рука | This Cursed Hand

04. Остерегись ид мартовских | Beware the Ides of March

05. Ни пирожков, ни пива | No More Cakes and Ale

06. Обман чувств | The Offered Fallacy

07. Из ничего не выйдет ничего | Nothing Will Come of Nothing

08. Заперты в моей памяти | In My Memory Lock'd

09. Завистливый суд | The Envious Court

10. Слишком холодно для ада | Too Cold for Hell


Файл

Кодек: h 264

Качество: BDRip 1080p

Видео: MPEG-4 AVC, 1920x1080 (16:9), 25.0 fps, ~9.2 Mb/s, 0.177 bpp

Звук:

Русский: AC3, 48 kHz, 2 ch, 192 kbps

Английский: DTS, 48 kHz, 6 ch, 1 509 kbps

Субтитры: Русские, английские (SRT)

MediaInfoGeneral

Unique ID : 245645814372648999894298988817592269207 (0xB8CDA9B7D60F211D9DB08AA351FEB997)

Complete name : J:...Shakespeare.And.Hathaway.Private.Investigators.S02.1080p.BDRipShakespeare.And.Hathaway.Private.Investigators.S02E01.1080p.BDRip.Rus.Eng.mkv

Format : Matroska

Format version : Version 4

File size : 3.33 GiB

Duration : 43 min 56 s

Overall bit rate : 10.9 Mb/s

Encoded date : UTC 2020-04-23 14:10:41

Writing application : mkvmerge v7.3.0 ('Nouages') 64bit built on Oct 22 2014 18:53:34

Writing library : libebml v1.3.0 + libmatroska v1.4.1



Video

ID : 1

Format : AVC

Format/Info : Advanced Video Codec

Format profile : [email protected]

Format settings : CABAC / 4 Ref Frames

Format settings, CABAC : Yes

Format settings, Reference : 4 frames

Codec ID : V_MPEG4/ISO/AVC

Duration : 43 min 56 s

Bit rate : 9 167 kb/s

Width : 1 920 pixels

Height : 1 080 pixels

Display aspect ratio : 16:9

Frame rate mode : Constant

Frame rate : 25.000 FPS

Color space : YUV

Chroma subsampling : 4:2:0

Bit depth : 8 bits

Scan type : Progressive

Bits/(Pixel*Frame) : 0.177

Stream size : 2.81 GiB (84%)

Writing library : x264 core 157 r2970 5493be8

Encoding settings : cabac=1 / ref=4 / deblock=1:-3:-3 / analyse=0x3:0x113 / me=umh / subme=8 / psy=1 / psy_rd=1.00:0.00 / mixed_ref=1 / me_range=32 / chroma_me=1 / trellis=1 / 8x8dct=1 / cqm=0 / deadzone=21,11 / fast_pskip=1 / chroma_qp_offset=-2 / threads=18 / lookahead_threads=3 / sliced_threads=0 / nr=0 / decimate=1 / interlaced=0 / bluray_compat=0 / constrained_intra=0 / bframes=3 / b_pyramid=2 / b_adapt=2 / b_bias=0 / direct=3 / weightb=1 / open_gop=0 / weightp=2 / keyint=250 / keyint_min=25 / scenecut=40 / intra_refresh=0 / rc_lookahead=50 / rc=2pass / mbtree=1 / bitrate=9167 / ratetol=1.0 / qcomp=0.60 / qpmin=0 / qpmax=69 / qpstep=4 / cplxblur=20.0 / qblur=0.5 / ip_ratio=1.40 / aq=3:0.80

Default : Yes

Forced : No



Audio #1

ID : 2

Format : AC-3

Format/Info : Audio Coding 3

Commercial name : Dolby Digital

Codec ID : A_AC3

Duration : 43 min 56 s

Bit rate mode : Constant

Bit rate : 192 kb/s

Channel(s) : 2 channels

Channel layout : L R

Sampling rate : 48.0 kHz

Frame rate : 31.250 FPS (1536 SPF)

Compression mode : Lossy

Stream size : 60.3 MiB (2%)

Title : TVShows

Language : Russian

Service kind : Complete Main

Default : Yes

Forced : No



Audio #2

ID : 3

Format : DTS

Format/Info : Digital Theater Systems

Codec ID : A_DTS

Duration : 43 min 56 s

Bit rate mode : Constant

Bit rate : 1 509 kb/s

Channel(s) : 6 channels

Channel layout : C L R Ls Rs LFE

Sampling rate : 48.0 kHz

Frame rate : 93.750 FPS (512 SPF)

Bit depth : 24 bits

Compression mode : Lossy

Stream size : 474 MiB (14%)

Language : English

Default : No

Forced : No



Text #1

ID : 4

Format : UTF-8

Codec ID : S_TEXT/UTF8

Codec ID/Info : UTF-8 Plain Text

Duration : 42 min 19 s

Bit rate : 139 b/s

Count of elements : 700

Stream size : 43.2 KiB (0%)

Title : TrueSeer

Language : Russian

Default : No

Forced : No



Text #2

ID : 5

Format : UTF-8

Codec ID : S_TEXT/UTF8

Codec ID/Info : UTF-8 Plain Text

Duration : 42 min 19 s

Bit rate : 78 b/s

Count of elements : 701

Stream size : 24.5 KiB (0%)

Language : English

Default : No

Forced : No



Menu

00:00:00.000 : en:Chapter 01

00:09:56.360 : en:Chapter 02

00:21:07.920 : en:Chapter 03

00:34:20.040 : en:Chapter 04

Релиз без рекламы



Скриншоты

Discussion

Comments 0

Post Your Comment

Files in this torrent

FILENAMESIZE
Shakespeare.And.Hathaway.Private.Investigators.S02E01.1080p.BDRip.Rus.Eng.mkv3.3 GB
Shakespeare.And.Hathaway.Private.Investigators.S02E02.1080p.BDRip.Rus.Eng.mkv3.3 GB
Shakespeare.And.Hathaway.Private.Investigators.S02E03.1080p.BDRip.Rus.Eng.mkv3.3 GB
Shakespeare.And.Hathaway.Private.Investigators.S02E04.1080p.BDRip.Rus.Eng.mkv3.3 GB
Shakespeare.And.Hathaway.Private.Investigators.S02E05.1080p.BDRip.Rus.Eng.mkv3.3 GB
Shakespeare.And.Hathaway.Private.Investigators.S02E06.1080p.BDRip.Rus.Eng.mkv3.3 GB
Shakespeare.And.Hathaway.Private.Investigators.S02E07.1080p.BDRip.Rus.Eng.mkv3.3 GB
Shakespeare.And.Hathaway.Private.Investigators.S02E08.1080p.BDRip.Rus.Eng.mkv3.3 GB
Shakespeare.And.Hathaway.Private.Investigators.S02E09.1080p.BDRip.Rus.Eng.mkv3.3 GB
Shakespeare.And.Hathaway.Private.Investigators.S02E10.1080p.BDRip.Rus.Eng.mkv3.3 GB

Alternative Torrents for 'Shakespeare And Hathaway Private Investigators'.

TORRENT NAMEADDEDSIZESEEDSPEERSHEALTH
10/2/202032.8 GB00
4/30/202033.3 GB00
4/25/202033.3 GB00
3/23/20202.9 GB00
3/21/2020794 MB00
3/21/2020268 MB00
3/13/20202.5 GB00
3/9/20202.5 GB00
3/8/20202.4 GB00
3/2/2020808 MB00
3/2/20201.5 GB00
3/2/2020855 MB00
2/24/2020824 MB00
2/17/2020725 MB00
2/8/20201.6 GB00