Extraction

Torrent Details

ExtractionExtraction

NAME
Extraction.torrent
CATEGORY
Movies
INFOHASH
261aa61e97d2ea8982859ee57509c2d4ea4ecd05
SIZE
1.8 GB in 3 files
ADDED
Uploaded on 26-04-2020 by our crawler pet called "Spidey".
SWARM
0 seeders & 0 peers
RATING
No votes yet.

Please login to vote for this torrent.


Description

Extraction 1080p including Foreign to English Subtitles, x265 Format



Media Information

Video

ID                                       : 1

Format                                   : HEVC

Format/Info                              : High Efficiency Video Coding

Format profile                           : Main [email protected]@Main

Codec ID                                 : hev1

Codec ID/Info                            : High Efficiency Video Coding

Duration                                 : 1h 57mn

Bit rate                                 : 2 001 Kbps

Width                                    : 1 920 pixels

Height                                   : 800 pixels

Display aspect ratio                     : 2.40:1

Frame rate mode                          : Constant

Frame rate                               : 24.000 fps

Color space                              : YUV

Chroma subsampling                       : 4:2:0

Bit depth                                : 10 bits

Bits/(Pixel*Frame)                       : 0.054

Stream size                              : 1.64 GiB (90%)



Audio

ID                                       : 2

Format                                   : AAC LC

Format/Info                              : Advanced Audio Codec Low Complexity

Codec ID                                 : mp4a-40-2

Duration                                 : 1h 57mn

Duration_LastFrame                       : -11ms

Bit rate mode                            : Constant

Bit rate                                 : 224 Kbps

Channel(s)                               : 6 channels

Channel layout                           : C L R Ls Rs LFE

Sampling rate                            : 48.0 KHz

Frame rate                               : 46.875 fps (1024 SPF)

Compression mode                         : Lossy

Stream size                              : 188 MiB (10%)

Language                                 : English

Default                                  : Yes

Alternate group                          : 1

Discussion

Comments 0

Post Your Comment

Files in this torrent

FILENAMESIZE
Extraction (2020).mp41.8 GB
Subs/Extraction (2020).Foreign to English.srt9.6 KB
Subs/Extraction (2020).srt67.1 KB

Alternative Torrents for 'Extraction'.

TORRENT NAMEADDEDSIZESEEDSPEERSHEALTH
6/18/20203 MB00
6/15/2020864 kB00
6/13/20202.2 GB00
6/11/20202.2 GB00
6/8/20203.2 GB00
6/6/202017 MB00
6/4/20201.6 GB00
6/2/20202 GB00
5/28/202038 MB00
5/28/20201.6 GB00
5/23/20201.5 GB00
5/21/20203.1 GB00
5/19/20202.4 GB00
5/17/20201.6 GB00
5/12/20205.6 GB00