Bloodshot 2020 BDREMUX 2160p HDR SeleZen

Torrent Details

Bloodshot 2020 BDREMUX 2160p HDR<span style=color:#fc9c6d> seleZen</span>
Bloodshot 2020 BDREMUX 2160p HDR<span style=color:#fc9c6d> seleZen</span>

NAME
Bloodshot 2020 BDREMUX 2160p HDR seleZen.torrent
CATEGORY
Movies
INFOHASH
9eaaeb763670af5eaab3e14fae03acc83e5bc9de
SIZE
40.7 GB in 1 file
ADDED
Uploaded on 26-04-2020 by our crawler pet called "Spidey".
SWARM
0 seeders & 0 peers
RATING
No votes yet.

Please login to vote for this torrent.


Description

Информация о фильме

Название: Бладшот

Оригинальное название: Bloodshot

Год выхода: 2020

Жанр: Фантастика, боевик, драма

Режиссер: Дэйв Уилсон

В ролях: Вин Дизель, Сэм Хьюэн, Эйса Гонсалес, Гай Пирс, Талула Райли, Тоби Кеббелл, Ламорн Моррис, Йоуханнес Хёйкьюр Йоуханнессон, Сиддхартх Дхананджай, Тайрел Мейер, Алекс Эн-лос







О фильме: Корпорация RST возвращает к жизни недавно убитого солдата Рэя Гаррисона. Армия нанороботов в его крови превратила Рэя в бессмертного Бладшота, наделенного сверхчеловеческой силой и способностью мгновенно самоисцеляться. Контролируя тело Рэя, компания влияет на его разум и воспоминания. Но герой пойдет на все, чтобы выяснить правду.



Страна: США, Китай

Студия: Sony Pictures Entertainment (SPE), Bona Film Group, Columbia Pictures

Продолжительность: 01:49:20

Перевод(ы):

#1: Дублированный | iTunes

#2: Профессиональный многоголосый | HDRezka Studio



Качество: BDRemux 2160p

Видео: 3840x2160 at 23.976 fps, MPEG-H HEVC HDR Video, 48600 kbps avg

Аудио #01: 48 kHz, AC3, 5.1, 384 Kbps | iTunes | RUS |

Аудио #02: 48 kHz, AC3, 5.1, 448 Kbps | HDRezka Studio | RUS |

Аудио #03: 48 kHz, TrueHD, 7.1, 3188 Kbps | Оригинал | ENG |

Аудио #04: 48 kHz, AC3, 5.1, 640 Kbps | Оригинал | ENG |

Субтитры: Русские (Forced, full), украинские (Full), английские







MIGeneral

Unique ID : 29906080486769332818707198922837656848 (0x167FB39B972A013941D6392F0B4F0510)

Complete name : E:Video111Bloodshot.2020.BDREMUX.2160p.HDR.seleZen.mkv

Format : Matroska

Format version : Version 4

File size : 40.7 GiB

Duration : 1 h 49 min

Overall bit rate mode : Variable

Overall bit rate : 53.3 Mb/s

Movie name : Bloodshot 2020 4K from селезень

Encoded date : UTC 2020-04-26 14:26:01

Writing application : mkvmerge v40.0.0 ('Old Town Road + Pony') 64-bit

Writing library : libebml v1.3.9 + libmatroska v1.5.2



Video

ID : 1

Format : HEVC

Format/Info : High Efficiency Video Coding

Format profile : Main [email protected]@High

HDR format : SMPTE ST 2086, HDR10 compatible

Codec ID : V_MPEGH/ISO/HEVC

Duration : 1 h 49 min

Bit rate : 48.6 Mb/s

Width : 3 840 pixels

Height : 2 160 pixels

Display aspect ratio : 16:9

Frame rate mode : Constant

Frame rate : 23.976 (24000/1001) FPS

Color space : YUV

Chroma subsampling : 4:2:0 (Type 2)

Bit depth : 10 bits

Bits/(Pixel*Frame) : 0.244

Stream size : 37.1 GiB (91%)

Language : English

Default : Yes

Forced : No

Color range : Limited

Color primaries : BT.2020

Transfer characteristics : PQ

Matrix coefficients : BT.2020 non-constant

Mastering display color pri : Display P3

Mastering display luminance : min: 0.0050 cd/m2, max: 4000 cd/m2

Maximum Content Light Level : 4004 cd/m2

Maximum Frame-Average Light : 602 cd/m2



Audio #1

ID : 2

Format : AC-3

Format/Info : Audio Coding 3

Commercial name : Dolby Digital

Codec ID : A_AC3

Duration : 1 h 49 min

Bit rate mode : Constant

Bit rate : 384 kb/s

Channel(s) : 6 channels

Channel layout : L R C LFE Ls Rs

Sampling rate : 48.0 kHz

Frame rate : 31.250 FPS (1536 SPF)

Compression mode : Lossy

Stream size : 300 MiB (1%)

Title : Dub [iTunes]

Language : Russian

Service kind : Complete Main

Default : Yes

Forced : Yes



Audio #2

ID : 3

Format : AC-3

Format/Info : Audio Coding 3

Commercial name : Dolby Digital

Codec ID : A_AC3

Duration : 1 h 49 min

Bit rate mode : Constant

Bit rate : 448 kb/s

Channel(s) : 6 channels

Channel layout : L R C LFE Ls Rs

Sampling rate : 48.0 kHz

Frame rate : 31.250 FPS (1536 SPF)

Compression mode : Lossy

Stream size : 350 MiB (1%)

Title : MVO [HDRezka Studio]

Language : Russian

Service kind : Complete Main

Default : No

Forced : No



Audio #3

ID : 4

Format : MLP FBA 16-ch

Format/Info : Meridian Lossless Packing FBA with 16-channel presentation

Commercial name : Dolby TrueHD with Dolby Atmos

Codec ID : A_TRUEHD

Duration : 1 h 49 min

Bit rate mode : Variable

Bit rate : 3 188 kb/s

Maximum bit rate : 5 454 kb/s

Channel(s) : 8 channels

Channel layout : L R C LFE Ls Rs Lb Rb

Sampling rate : 48.0 kHz

Frame rate : 1 200.000 FPS (40 SPF)

Compression mode : Lossless

Stream size : 2.43 GiB (6%)

Title : Original

Language : English

Default : No

Forced : No

Number of dynamic objects : 11

Bed channel count : 1 channel

Bed channel configuration : LFE



Audio #4

ID : 5

Format : AC-3

Format/Info : Audio Coding 3

Commercial name : Dolby Digital

Codec ID : A_AC3

Duration : 1 h 49 min

Bit rate mode : Constant

Bit rate : 640 kb/s

Channel(s) : 6 channels

Channel layout : L R C LFE Ls Rs

Sampling rate : 48.0 kHz

Frame rate : 31.250 FPS (1536 SPF)

Compression mode : Lossy

Stream size : 500 MiB (1%)

Language : English

Service kind : Complete Main

Default : No

Forced : No



Text #1

ID : 6

Format : UTF-8

Codec ID : S_TEXT/UTF8

Codec ID/Info : UTF-8 Plain Text

Duration : 1 h 47 min

Bit rate : 0 b/s

Count of elements : 10

Stream size : 400 Bytes (0%)

Title : Forced

Language : Russian

Default : Yes

Forced : Yes



Text #2

ID : 7

Format : UTF-8

Codec ID : S_TEXT/UTF8

Codec ID/Info : UTF-8 Plain Text

Duration : 1 h 48 min

Bit rate : 72 b/s

Count of elements : 1072

Stream size : 57.8 KiB (0%)

Title : Full

Language : Russian

Default : No

Forced : No



Text #3

ID : 8

Format : UTF-8

Codec ID : S_TEXT/UTF8

Codec ID/Info : UTF-8 Plain Text

Duration : 1 h 48 min

Bit rate : 66 b/s

Count of elements : 1071

Stream size : 52.6 KiB (0%)

Title : Full

Language : Ukrainian

Default : No

Forced : No



Text #4

ID : 9

Format : UTF-8

Codec ID : S_TEXT/UTF8

Codec ID/Info : UTF-8 Plain Text

Duration : 1 h 41 min

Bit rate : 46 b/s

Count of elements : 1150

Stream size : 34.9 KiB (0%)

Title : Full

Language : English

Default : No

Forced : No



Text #5

ID : 10

Format : UTF-8

Codec ID : S_TEXT/UTF8

Codec ID/Info : UTF-8 Plain Text

Duration : 1 h 47 min

Bit rate : 51 b/s

Count of elements : 1493

Stream size : 40.6 KiB (0%)

Title : SDH

Language : English

Default : No

Forced : No



Menu

00:00:00.000 : en:Chapter 01

00:07:06.384 : en:Chapter 02

00:13:56.210 : en:Chapter 03

00:20:36.861 : en:Chapter 04

00:25:05.546 : en:Chapter 05

00:32:11.179 : en:Chapter 06

00:41:41.499 : en:Chapter 07

00:46:39.380 : en:Chapter 08

00:53:35.629 : en:Chapter 09

01:02:28.495 : en:Chapter 10

01:08:59.344 : en:Chapter 11

01:12:42.525 : en:Chapter 12

01:19:15.918 : en:Chapter 13

01:26:49.996 : en:Chapter 14

01:31:07.379 : en:Chapter 15

01:38:31.531 : en:Chapter 16

01:44:11.245 : en:Chapter 17



Релиз от:



Discussion

Comments 0

Post Your Comment

Files in this torrent

FILENAMESIZE
Bloodshot.2020.BDREMUX.2160p.HDR.seleZen.mkv40.7 GB

Alternative Torrents for 'Bloodshot HDR'.

TORRENT NAMEADDEDSIZESEEDSPEERSHEALTH
6/1/202040.4 GB00
5/20/202017.1 GB00
5/7/202040.1 GB00
5/7/202012.6 GB00
5/2/202012.6 GB00
5/1/20202.7 GB00
5/1/202010.3 GB00
5/1/20203.1 GB00
4/29/202017.9 GB00
4/28/202015.1 GB00
4/27/20204.9 GB00
4/26/202040.7 GB00
3/31/20208 GB00
3/29/202017.1 GB00
3/28/202017.3 GB00