Bloodshot 2020 BDRip X264 Rus Stalkerok New-Team

Torrent Details

Bloodshot 2020 BDRip x264 Rus stalkerok New<span style=color:#fc9c6d>-Team</span>
Bloodshot 2020 BDRip x264 Rus stalkerok New<span style=color:#fc9c6d>-Team</span>

NAME
Bloodshot 2020 BDRip x264 Rus stalkerok New-Team.torrent
CATEGORY
Movies
INFOHASH
a5dd920e6b674fc06c5408271dc43819e684dfb8
SIZE
1.4 GB in 1 file
ADDED
Uploaded on 26-04-2020 by our crawler pet called "Spidey".
SWARM
0 seeders & 0 peers
RATING
No votes yet.

Please login to vote for this torrent.


Description

Бладшот

Bloodshot



«Быть супергероем у него в крови»











Страна: США, Китай

Жанр: фантастика, боевик

Год выпуска: 2020

Продолжительность: 01:49:19



Перевод: Профессиональный (полное дублирование) [Пифагор | iTunes]

Субтитры: русские (форсированные, полные)

Оригинальная аудиодорожка: нет



Режиссер: Дэйв Уилсон / Dave Wilson



В ролях: Вин Дизель, Гай Пирс, Ламорн Моррис, Эйса Гонсалес, Сэм Хьюэн, Сиддхартх Дхананджай, Талула Райли, Тоби Кеббелл, Йоуханнес Хёйкьюр Йоуханнессон, Алекс Эрнандез



Описание: Военный Рэй Гаррисон возвращается из очередной горячей точки к любимой красавице-жене. Супруги проводят отпуск в Европе, но счастье длится недолго - террористы, не сумев вытянуть из Рэя нужную им информацию, убивают жену, а затем и его самого. Но вскоре корпорация RST возвращает его к жизни. Армия нанороботов в крови превратила Рэя в бессмертного Бладшота, и теперь солдат наделен сверхсилой и способностью мгновенно самоисцеляться, вот только память оставляет желать лучшего. Но вскоре воспоминания о последних мгновениях жизни возвращаются, и Бладшот отправляется мстить за смерть жены.







Релиз:



Автор рипа: stalkerok



Сэмпл



Качество видео: BDRip-AVC | Исходник: Bloodshot.2020.BDREMUX.1080p.seleZen

Формат видео: MKV

Видео кодек: AVC

Аудио кодек: AC3

Видео: AVC, 1509 Кбит/сек, 972x406 (2.40:1), 23,976 кадр/сек

Аудио: AC3, 384 Кбит/сек, 48 КГц, 5.1 - русский

Навигация по главам: есть



x264/MediaInfo



---[Information] [26.04.2020 15:08:23] x264 [info]: frame I:1406 Avg QP:17.17 size: 36722

---[Information] [26.04.2020 15:08:23] x264 [info]: frame P:40211 Avg QP:19.27 size: 15124

---[Information] [26.04.2020 15:08:23] x264 [info]: frame B:115655 Avg QP:22.51 size: 5000

---[Information] [26.04.2020 15:08:23] x264 [info]: consecutive B-frames: 4.0% 5.1% 10.7% 33.0% 16.8% 21.0% 4.4% 2.8% 0.9% 0.5% 0.2% 0.2% 0.2% 0.1% 0.1% 0.0%



General

Unique ID : 181121231709508945446265143317310466501 (0x8842AE2CD1567827B4D6BB7D6BB3E9C5)

Complete name : C:tempBloodshot.2020Bloodshot.2020.BDRip.x264.Rus.stalkerok.New-Team.mkv

Format : Matroska

Format version : Version 4 / Version 2

File size : 1.45 GiB

Duration : 1 h 49 min

Overall bit rate : 1 896 kb/s

Movie name : Bloodshot (2020) | Rip by stalkerok

Encoded date : UTC 2020-04-26 12:32:57

Writing application : mkvmerge v44.0.0 ('Domino') 64-bit

Writing library : libebml v1.3.10 + libmatroska v1.5.2



Video

ID : 1

Format : AVC

Format/Info : Advanced Video Codec

Format profile : [email protected]

Format settings, CABAC : Yes

Format settings, ReFrames : 12 frames

Codec ID : V_MPEG4/ISO/AVC

Duration : 1 h 49 min

Bit rate : 1 510 kb/s

Width : 972 pixels

Height : 406 pixels

Display aspect ratio : 2.40:1

Frame rate mode : Constant

Frame rate : 23.976 FPS

Color space : YUV

Chroma subsampling : 4:2:0

Bit depth : 8 bits

Scan type : Progressive

Bits/(Pixel*Frame) : 0.160

Stream size : 1.15 GiB (80%)

Title : Bloodshot (2020) | Rip by stalkerok

Writing library : x264 core 160 r3000 33f9e14

Encoding settings : cabac=1 / ref=12 / deblock=1:-3:-2 / analyse=0x3:0x133 / me=umh / subme=11 / psy=1 / psy_rd=1.00:0.00 / mixed_ref=1 / me_range=32 / chroma_me=1 / trellis=2 / 8x8dct=1 / cqm=0 / deadzone=21,11 / fast_pskip=0 / chroma_qp_offset=-2 / threads=12 / lookahead_threads=3 / sliced_threads=0 / nr=0 / decimate=1 / interlaced=0 / bluray_compat=0 / constrained_intra=0 / bframes=15 / b_pyramid=2 / b_adapt=2 / b_bias=0 / direct=3 / weightb=1 / open_gop=0 / weightp=2 / keyint=240 / keyint_min=23 / scenecut=40 / intra_refresh=0 / rc_lookahead=60 / rc=crf / mbtree=0 / crf=19.8 / qcomp=0.65 / qpmin=0 / qpmax=69 / qpstep=4 / vbv_maxrate=50000 / vbv_bufsize=62500 / crf_max=0.0 / nal_hrd=none / filler=0 / ip_ratio=1.40 / pb_ratio=1.30 / aq=3:0.90

Default : Yes

Forced : No



Audio

ID : 2

Format : AC-3

Format/Info : Audio Coding 3

Mode extension : CM (complete main)

Format settings, Endianness : Big

Codec ID : A_AC3

Duration : 1 h 49 min

Bit rate mode : Constant

Bit rate : 384 kb/s

Channel(s) : 6 channels

Channel positions : Front: L C R, Side: L R, LFE

Sampling rate : 48.0 kHz

Frame rate : 31.250 FPS (1536 spf)

Compression mode : Lossy

Stream size : 300 MiB (20%)

Language : Russian

Default : Yes

Forced : No



Text #1

ID : 3

Format : UTF-8

Codec ID : S_TEXT/UTF8

Codec ID/Info : UTF-8 Plain Text

Duration : 1 h 47 min

Bit rate : 0 b/s

Count of elements : 10

Stream size : 400 Bytes (0%)

Title : Forced

Language : Russian

Default : Yes

Forced : No



Text #2

ID : 4

Format : UTF-8

Codec ID : S_TEXT/UTF8

Codec ID/Info : UTF-8 Plain Text

Duration : 1 h 48 min

Bit rate : 72 b/s

Count of elements : 1072

Stream size : 57.8 KiB (0%)

Title : Full

Language : Russian

Default : No

Forced : No



Menu

00:00:00.000 : en:Chapter 01

00:07:06.384 : en:Chapter 02

00:13:56.210 : en:Chapter 03

00:20:36.861 : en:Chapter 04

00:25:05.546 : en:Chapter 05

00:32:11.179 : en:Chapter 06

00:41:41.499 : en:Chapter 07

00:46:39.380 : en:Chapter 08

00:53:35.629 : en:Chapter 09

01:02:28.495 : en:Chapter 10

01:08:59.344 : en:Chapter 11

01:12:42.525 : en:Chapter 12

01:19:15.918 : en:Chapter 13

01:26:49.996 : en:Chapter 14

01:31:07.379 : en:Chapter 15

01:38:31.531 : en:Chapter 16

01:44:11.245 : en:Chapter 17













Discussion

Comments 0

Post Your Comment

Files in this torrent

FILENAMESIZE
Bloodshot.2020.BDRip.x264.Rus.stalkerok.New-Team.mkv1.4 GB

Alternative Torrents for 'Bloodshot Rus stalkerok'.

TORRENT NAMEADDEDSIZESEEDSPEERSHEALTH
4/27/2020743 MB00
4/26/20202.2 GB00
4/26/20201.4 GB00