Extraction 2020 HDRip XviD B4ND1T69

Torrent Details


Extraction 2020 HDRip XviD<span style=color:#fc9c6d> B4ND1T69</span>

NAME
Extraction 2020 HDRip XviD B4ND1T69.torrent
CATEGORY
Movies
INFOHASH
4e5edea7261448cf4d572b9adcc223629b0350d1
SIZE
1.3 GB in 4 files
ADDED
Uploaded on 26-04-2020 by our crawler pet called "Spidey".
SWARM
0 seeders & 0 peers
RATING
No votes yet.

Please login to vote for this torrent.


Description

Extraction.2020.HDRip.XviD.B4ND1T69







Director: Sam Hargrave

Writers: Joe Russo (based on the graphic novel "Ciudad", from a story by), Joe Russo (script)

Stars: Chris Hemsworth, Golshifteh Farahani, Rudhraksh Jaiswal



Plot/Story:

Tyler Rake, a fearless black market mercenary, embarks on the most deadly extraction of his career when he's enlisted to rescue the kidnapped son of an imprisoned international crime lord.



General

Complete name               : Extraction.2020.HDRip.XviD.B4ND1T69.avi

Format                      : AVI

Format/Info                 : Audio Video Interleave

File size                   : 1.35 GiB

Duration                    : 1 h 57 min

Overall bit rate            : 1 643 kb/s

Subtitles                   : Yes...Hardcoded for non-English parts + file included(HI)



Video

ID                          : 0

Format                      : MPEG-4 Visual

Format profile              : Advanced [email protected]

Format settings, BVOP       : 2

Format settings, QPel       : No

Format settings, GMC        : No warppoints

Format settings, Matrix     : Default (H.263)

Codec ID                    : XVID

Codec ID/Hint               : XviD

Duration                    : 1 h 57 min

Bit rate                    : 1 502 kb/s

Width                       : 720 pixels

Height                      : 304 pixels

Display aspect ratio        : 2.35:1

Frame rate                  : 24.000 FPS

Color space                 : YUV

Chroma subsampling          : 4:2:0

Bit depth                   : 8 bits

Scan type                   : Progressive

Compression mode            : Lossy

Bits/(Pixel*Frame)          : 0.286

Stream size                 : 1.23 GiB (91%)

Writing library             : XviD 64



Audio

ID                          : 1

Format                      : MPEG Audio

Format version              : Version 1

Format profile              : Layer 3

Codec ID                    : 55

Codec ID/Hint               : MP3

Duration                    : 1 h 57 min

Bit rate mode               : Constant

Bit rate                    : 128 kb/s

Channel(s)                  : 2 channels

Sampling rate               : 48.0 kHz

Compression mode            : Lossy

Stream size                 : 108 MiB (8%)

Alignment                   : Aligned on interleaves

Interleave, duration        : 24  ms (0.58 video frame)



Screenshots:



















Please Seed For As Long As Possible

Or At Least 1:1 Ratio...Thanks

Enjoy Peeps

Discussion

Comments 0

Post Your Comment

Files in this torrent

FILENAMESIZE
1337x text file.txt61 B
Downloaded from katcr.co.txt139 B
Extraction.2020.HDRip.XviD.B4ND1T69.avi1.3 GB
Extraction.2020.HDRip.XviD.B4ND1T69.srt60.9 KB

Alternative Torrents for 'Extraction'.

TORRENT NAMEADDEDSIZESEEDSPEERSHEALTH
6/18/20203 MB30
6/15/2020864 kB12
6/13/20202.2 GB00
6/11/20202.2 GB00
6/8/20203.2 GB00
6/6/202017 MB00
6/4/20201.6 GB00
6/2/20202 GB00
5/28/202038 MB00
5/28/20201.6 GB00
5/23/20201.5 GB00
5/21/20203.1 GB00
5/19/20202.4 GB00
5/17/20201.6 GB00
5/12/20205.6 GB00