Fantasy Island 2020 Unrated AMZN WEB-DL 1080p SeleZen

Torrent Details

Fantasy Island 2020 Unrated AMZN WEB-DL 1080p<span style=color:#fc9c6d> seleZen</span>
Fantasy Island 2020 Unrated AMZN WEB-DL 1080p<span style=color:#fc9c6d> seleZen</span>

NAME
Fantasy Island 2020 Unrated AMZN WEB-DL 1080p seleZen.torrent
CATEGORY
Movies
INFOHASH
7aa377ada31c571a4ad3afcf5944d1f38e033452
SIZE
7 GB in 1 file
ADDED
Uploaded on 26-04-2020 by our crawler pet called "Spidey".
SWARM
0 seeders & 0 peers
RATING
No votes yet.

Please login to vote for this torrent.


Description

Информация о фильме

Название: Остров фантазий

Оригинальное название: Fantasy Island

Год выхода: 2020

Жанр: Ужасы, триллер, фантастика

Режиссер: Джефф Уодлоу

В ролях: Майкл Пенья, Мэгги Кью, Люси Хейл, Остин Стоуэлл, Портия Даблдэй, Джимми О. Ян, Райан Хансен, Майкл Рукер, Шарлотта МакКинни, Ким Коутс, Париса Фитц-Хенли, Майк Фогель







О фильме: Загадочный мистер Рорк воплощает в жизнь самые смелые и тайные мечты своих постояльцев на роскошном труднодоступном тропическом курорте. Но будут ли готовы гости разгадать тайну острова и спасти свои жизни, когда их фантазии обернутся кошмаром?



Страна: США

Студия: Columbia Pictures, Blumhouse Productions

Продолжительность: 01:49:23

Перевод: Дублированный | iTunes



Качество: WEB-DL 1080p

Видео: MPEG-4 AVC, 1920x1080, 8137 Kbit/s, 23.976 fps

Аудио #01: 48 kHz, AC3, 5.1, 384 Kbps | iTunes | RUS |

Аудио #02: 48 kHz, E-AC3, 5.1, 640 Kbps | Оригинал | ENG |

Субтитры: Русские (Forced, full), английские







MIGeneral

Unique ID : 112602688397987258682185798416868521429 (0x54B67D2B3304CD9B7F27FB62CDEF35D5)

Complete name : E:Video111Fantasy.Island.2020.Unrated.AMZN.WEB-DL.1080p.seleZen.mkv

Format : Matroska

Format version : Version 4

File size : 7.00 GiB

Duration : 1 h 49 min

Overall bit rate : 9 164 kb/s

Movie name : Fantasy Island 2020 from селезень

Encoded date : UTC 2020-04-26 18:23:28

Writing application : mkvmerge v40.0.0 ('Old Town Road + Pony') 64-bit

Writing library : libebml v1.3.9 + libmatroska v1.5.2



Video

ID : 1

Format : AVC

Format/Info : Advanced Video Codec

Format profile : [email protected]

Format settings : CABAC / 4 Ref Frames

Format settings, CABAC : Yes

Format settings, Reference : 4 frames

Codec ID : V_MPEG4/ISO/AVC

Duration : 1 h 49 min

Bit rate mode : Constant

Bit rate : 8 137 kb/s

Nominal bit rate : 10 000 kb/s

Width : 1 920 pixels

Height : 800 pixels

Display aspect ratio : 2.40:1

Frame rate mode : Constant

Frame rate : 23.976 (24000/1001) FPS

Color space : YUV

Chroma subsampling : 4:2:0

Bit depth : 8 bits

Scan type : Progressive

Bits/(Pixel*Frame) : 0.221

Stream size : 6.22 GiB (89%)

Language : English

Default : Yes

Forced : No

Color range : Limited

Color primaries : BT.709

Transfer characteristics : BT.709

Matrix coefficients : BT.709



Audio #1

ID : 2

Format : AC-3

Format/Info : Audio Coding 3

Commercial name : Dolby Digital

Codec ID : A_AC3

Duration : 1 h 49 min

Bit rate mode : Constant

Bit rate : 384 kb/s

Channel(s) : 6 channels

Channel layout : L R C LFE Ls Rs

Sampling rate : 48.0 kHz

Frame rate : 31.250 FPS (1536 SPF)

Compression mode : Lossy

Stream size : 300 MiB (4%)

Title : iTunes

Language : Russian

Service kind : Complete Main

Default : Yes

Forced : Yes



Audio #2

ID : 3

Format : E-AC-3

Format/Info : Enhanced AC-3

Commercial name : Dolby Digital Plus

Codec ID : A_EAC3

Duration : 1 h 49 min

Bit rate mode : Constant

Bit rate : 640 kb/s

Channel(s) : 6 channels

Channel layout : L R C LFE Ls Rs

Sampling rate : 48.0 kHz

Frame rate : 31.250 FPS (1536 SPF)

Compression mode : Lossy

Stream size : 501 MiB (7%)

Title : Original

Language : English

Service kind : Complete Main

Default : No

Forced : No



Text #1

ID : 4

Format : UTF-8

Codec ID : S_TEXT/UTF8

Codec ID/Info : UTF-8 Plain Text

Duration : 1 h 46 min

Bit rate : 0 b/s

Count of elements : 3

Stream size : 129 Bytes (0%)

Title : Forced

Language : Russian

Default : Yes

Forced : Yes



Text #2

ID : 5

Format : UTF-8

Codec ID : S_TEXT/UTF8

Codec ID/Info : UTF-8 Plain Text

Duration : 1 h 48 min

Bit rate : 96 b/s

Count of elements : 1409

Stream size : 76.3 KiB (0%)

Title : Full

Language : Russian

Default : No

Forced : No



Text #3

ID : 6

Format : UTF-8

Codec ID : S_TEXT/UTF8

Codec ID/Info : UTF-8 Plain Text

Duration : 1 h 46 min

Bit rate : 61 b/s

Count of elements : 1581

Stream size : 48.1 KiB (0%)

Title : Full

Language : English

Default : No

Forced : No



Text #4

ID : 7

Format : UTF-8

Codec ID : S_TEXT/UTF8

Codec ID/Info : UTF-8 Plain Text

Duration : 1 h 48 min

Bit rate : 67 b/s

Count of elements : 1930

Stream size : 53.5 KiB (0%)

Title : SDH

Language : English

Default : No

Forced : No



Menu

00:00:00.000 : en:1

00:08:46.985 : en:2

00:13:44.699 : en:3

00:18:47.710 : en:4

00:25:42.916 : en:5

00:32:40.750 : en:6

00:39:34.789 : en:7

00:45:24.513 : en:8

00:51:01.933 : en:9

00:55:38.125 : en:10

01:01:33.939 : en:11

01:09:39.883 : en:12

01:15:22.308 : en:13

01:23:02.810 : en:14

01:29:11.803 : en:15

01:40:04.121 : en:16



Релиз от:



Discussion

Comments 0

Post Your Comment

Files in this torrent

FILENAMESIZE
Fantasy.Island.2020.Unrated.AMZN.WEB-DL.1080p.seleZen.mkv7 GB

Alternative Torrents for 'Fantasy Island Unrated'.

TORRENT NAMEADDEDSIZESEEDSPEERSHEALTH
7/12/20201.2 GB11381
7/12/20201.1 GB6018
7/12/20204 GB3914
7/12/20203.7 GB278
Yesterday4 GB2125
7/12/20202.3 GB139
6/13/20204 GB00
6/13/202010.4 GB00
6/11/20201.5 GB00
6/10/2020750 MB00
6/9/20201.5 GB00
5/28/20202.2 GB00
5/12/20202.3 GB00
5/12/20202 GB00
5/12/20209.9 GB00