Bloodshot (2020) [2160p] [HDR] (bluray)

Torrent Details

Bloodshot (2020) [2160p] [HDR] (bluray)
Bloodshot (2020) [2160p] [HDR] (bluray)

NAME
Bloodshot (2020) [2160p] [HDR] (bluray).torrent
CATEGORY
Movies
INFOHASH
be1a78f0d8cdcfede605bb138a5230caac384151
SIZE
4.9 GB in 2 files
ADDED
Uploaded on 27-04-2020 by our crawler pet called "Spidey".
SWARM
0 seeders & 0 peers
RATING
No votes yet.

Please login to vote for this torrent.


Description

Release info:

>Encoded by: [WMAN-LorD]

>HDR working!

>Source: Blu-ray Original 4k HDR











[code]

General

Unique ID                   : 180498708100123801552252659148002139508 (0x87CAC964359A8B575A93C62A8B2B9D74)

Complete name               : Bloodshot.2020.2160p.UHD.HDR.BluRay.x265.10bit.DD5.1.[WMAN-LorD].mkv

Format                      : Matroska

Format version              : Version 4

File size                   : 4.86 GiB

Duration                    : 1 h 49 min

Overall bit rate            : 6 362 kb/s

Movie name                  : Bloodshot (2020) [WMAN-LorD]

Encoded date                : UTC 2020-04-27 02:36:35

Writing application         : mkvmerge v45.0.0 ('Heaven in Pennies') 64-bit

Writing library             : libebml v1.3.10 + libmatroska v1.5.2

Cover                       : Yes

Attachments                 : cover.jpg

IMDB                        : tt1634106

TMDB                        : movie/338762



Video

ID                          : 1

Format                      : HEVC

Format/Info                 : High Efficiency Video Coding

Format profile              : Main [email protected]@Main

HDR format                  : SMPTE ST 2086, HDR10 compatible

Codec ID                    : V_MPEGH/ISO/HEVC

Duration                    : 1 h 49 min

Bit rate                    : 5 662 kb/s

Width                       : 3 840 pixels

Height                      : 2 160 pixels

Display aspect ratio        : 16:9

Frame rate mode             : Constant

Frame rate                  : 23.976 (24000/1001) FPS

Color space                 : YUV

Chroma subsampling          : 4:2:0

Bit depth                   : 10 bits

Bits/(Pixel*Frame)          : 0.028

Stream size                 : 4.32 GiB (89%)

Title                       : [WMAN-LorD]

Language                    : English

Default                     : Yes

Forced                      : No

Color range                 : Limited

Color primaries             : BT.2020

Transfer characteristics    : PQ

Matrix coefficients         : BT.2020 non-constant

Mastering display color pri : Display P3

Mastering display luminance : min: 0.0050 cd/m2, max: 4000 cd/m2

Maximum Content Light Level : 4004 cd/m2

Maximum Frame-Average Light : 602 cd/m2



Audio

ID                          : 2

Format                      : AC-3

Format/Info                 : Audio Coding 3

Commercial name             : Dolby Digital

Codec ID                    : A_AC3

Duration                    : 1 h 49 min

Bit rate mode               : Constant

Bit rate                    : 640 kb/s

Channel(s)                  : 6 channels

Channel layout              : L R C LFE Ls Rs

Sampling rate               : 48.0 kHz

Frame rate                  : 31.250 FPS (1536 SPF)

Compression mode            : Lossy

Stream size                 : 500 MiB (10%)

Title                       : Compatibility Track / Dolby Digital Audio / 5.1 / 48 kHz / 640 kbps

Language                    : English

Service kind                : Complete Main

Default                     : No

Forced                      : No



Text #1

ID                          : 3

Format                      : UTF-8

Codec ID                    : S_TEXT/UTF8

Codec ID/Info               : UTF-8 Plain Text

Duration                    : 1 h 41 min

Bit rate                    : 47 b/s

Count of elements           : 1091

Stream size                 : 35.2 KiB (0%)

Title                       : Portuguese Brazil

Language                    : Portuguese

Default                     : Yes

Forced                      : No



Text #2

ID                          : 4

Format                      : PGS

Muxing mode                 : zlib

Codec ID                    : S_HDMV/PGS

Codec ID/Info               : Picture based subtitle format used on BDs/HD-DVDs

Duration                    : 1 h 41 min

Bit rate                    : 28.0 kb/s

Count of elements           : 2030

Stream size                 : 20.3 MiB (0%)

Title                       : English

Language                    : English

Default                     : No

Forced                      : No



Text #3

ID                          : 5

Format                      : PGS

Muxing mode                 : zlib

Codec ID                    : S_HDMV/PGS

Codec ID/Info               : Picture based subtitle format used on BDs/HD-DVDs

Duration                    : 1 h 43 min

Bit rate                    : 30.9 kb/s

Count of elements           : 2318

Stream size                 : 22.9 MiB (0%)

Title                       : English (SDH)

Language                    : English

Default                     : No

Forced                      : No



Text #4

ID                          : 6

Format                      : PGS

Muxing mode                 : zlib

Codec ID                    : S_HDMV/PGS

Codec ID/Info               : Picture based subtitle format used on BDs/HD-DVDs

Duration                    : 1 h 48 min

Bit rate                    : 23.1 kb/s

Count of elements           : 2234

Stream size                 : 17.8 MiB (0%)

Title                       : French

Language                    : French

Default                     : No

Forced                      : No



Text #5

ID                          : 7

Format                      : PGS

Muxing mode                 : zlib

Codec ID                    : S_HDMV/PGS

Codec ID/Info               : Picture based subtitle format used on BDs/HD-DVDs

Duration                    : 1 h 48 min

Bit rate                    : 25.7 kb/s

Count of elements           : 2204

Stream size                 : 19.9 MiB (0%)

Title                       : Spanish (Latin American)

Language                    : Spanish

Default                     : No

Forced                      : No



Menu

00:00:00.000                : en:Chapter 01

00:07:06.384                : en:Chapter 02

00:13:56.210                : en:Chapter 03

00:20:36.861                : en:Chapter 04

00:25:05.546                : en:Chapter 05

00:32:11.179                : en:Chapter 06

00:41:41.499                : en:Chapter 07

00:46:39.380                : en:Chapter 08

00:53:35.629                : en:Chapter 09

01:02:28.495                : en:Chapter 10

01:08:59.344                : en:Chapter 11

01:12:42.525                : en:Chapter 12

01:19:15.918                : en:Chapter 13

01:26:49.996                : en:Chapter 14

01:31:07.379                : en:Chapter 15

01:38:31.531                : en:Chapter 16

01:44:11.245                : en:Chapter 17







[/code]





Discussion

Comments 0

Post Your Comment

Files in this torrent

FILENAMESIZE
Bloodshot.2020.2160p.UHD.HDR.BluRay.x265.10bit.DD5.1.[WMAN-LorD].mkv4.9 GB
[TGx]Downloaded from torrentgalaxy.to .txt585 B

Alternative Torrents for 'Bloodshot p HDR bluray'.

TORRENT NAMEADDEDSIZESEEDSPEERSHEALTH
7/9/2020861 MB1295224
7/8/20202.3 GB1162164
7/9/20201.7 GB1132234
7/13/20202 GB111080
7/9/20201.2 GB1098250
7/13/20202 GB91722
7/9/20202.5 GB856299
7/8/2020898 MB760156
7/7/20201.5 GB63124
7/8/20201.4 GB624299
7/11/2020820 MB586131
7/10/20206.7 GB41718
7/14/2020829 MB413287
7/11/20201.6 GB39896
7/13/20202 GB32817