Bloodshot 2020 BRRip XviD B4ND1T69

Torrent Details

Bloodshot 2020 BRRip XviD<span style=color:#fc9c6d> B4ND1T69</span>
Bloodshot 2020 BRRip XviD<span style=color:#fc9c6d> B4ND1T69</span>

NAME
Bloodshot 2020 BRRip XviD B4ND1T69.torrent
CATEGORY
Movies
INFOHASH
48d601f983a6179e56ae5c86f476d3b602b13a94
SIZE
1.3 GB in 4 files
ADDED
Uploaded on 27-04-2020 by our crawler pet called "Spidey".
SWARM
0 seeders & 0 peers
RATING
No votes yet.

Please login to vote for this torrent.


Description

Bloodshot.2020.BRRip.XviD.B4ND1T69



Director: Dave Wilson
Writers: Jeff Wadlow (screenplay by), Eric Heisserer (screenplay by)
Stars: Vin Diesel, Eiza González, Sam Heughan

Plot/Story:
Ray Garrison, an elite soldier who was killed in battle, is brought back to life by an advanced technology that gives him the ability of super human strength and fast healing. With his new abilities, he goes after the man who killed his wife, or at least, who he believes killed his wife. He soon comes to learn that not everything he learns can be trusted. The true question his: Can he even trust himself?

General
Complete name : Bloodshot.2020.BRRip.XviD.B4ND1T69.avi
Format : AVI
Format/Info : Audio Video Interleave
File size : 1.29 GiB
Duration : 1 h 49 min
Overall bit rate : 1 694 kb/s
Subtitles : Yes...Included(HI)

Video
ID : 0
Format : MPEG-4 Visual
Format profile : Advanced [email protected]
Format settings, BVOP : 2
Format settings, QPel : No
Format settings, GMC : No warppoints
Format settings, Matrix : Default (H.263)
Codec ID : XVID
Codec ID/Hint : XviD
Duration : 1 h 49 min
Bit rate : 1 553 kb/s
Width : 720 pixels
Height : 304 pixels
Display aspect ratio : 2.35:1
Frame rate : 23.976 (24000/1001) FPS
Color space : YUV
Chroma subsampling : 4:2:0
Bit depth : 8 bits
Scan type : Progressive
Compression mode : Lossy
Bits/(Pixel*Frame) : 0.296
Stream size : 1.19 GiB (92%)
Writing library : XviD 64

Audio
ID : 1
Format : MPEG Audio
Format version : Version 1
Format profile : Layer 3
Codec ID : 55
Codec ID/Hint : MP3
Duration : 1 h 49 min
Bit rate mode : Constant
Bit rate : 128 kb/s
Channel(s) : 2 channels
Sampling rate : 48.0 kHz
Compression mode : Lossy
Stream size : 100 MiB (8%)
Alignment : Aligned on interleaves
Interleave, duration : 24 ms (0.58 video frame)

Screenshots:
https://i.imgur.com/9pwyafB.png
https://i.imgur.com/I7KIhCa.png
https://i.imgur.com/1X3agRo.png
https://i.imgur.com/pcdraxy.png
https://i.imgur.com/QTjgVMU.png
https://i.imgur.com/PqxgWEQ.png
https://i.imgur.com/I2nnhKb.png
https://i.imgur.com/72rT10R.png









Please Seed For As Long As Possible
Or At Least 1:1 Ratio...Thanks
Enjoy Peeps

Discussion

Comments 0

Post Your Comment

Files in this torrent

FILENAMESIZE
1337x text file.txt61 B
Bloodshot.2020.BRRip.XviD.B4ND1T69.avi1.3 GB
Bloodshot.2020.BRRip.XviD.B4ND1T69.srt100.3 KB
Downloaded from katcr.co.txt139 B

Alternative Torrents for 'Bloodshot'.

TORRENT NAMEADDEDSIZESEEDSPEERSHEALTH
6/26/20209.4 GB366
6/22/20201.2 GB107
6/22/20201.3 GB65
6/22/20202.8 GB53
6/18/20204.2 GB00
6/18/2020946 MB00
6/18/20203.9 GB00
6/18/2020871 MB00
6/18/20203.7 GB00
6/18/20201.1 GB00
6/18/20201.3 GB00
6/17/20201.3 GB00
6/17/20204 GB00
6/17/20203.3 GB00
6/17/20201.3 GB00