Extraction 2020 NEW WATCH NOW HDRip XviD AC3-EVO

Torrent Details

Extraction 2020 NEW WATCH NOW HDRip XviD AC3<span style=color:#fc9c6d>-EVO</span>Extraction 2020 NEW WATCH NOW HDRip XviD AC3<span style=color:#fc9c6d>-EVO</span>

NAME
Extraction 2020 NEW WATCH NOW HDRip XviD AC3-EVO.torrent
CATEGORY
Movies
INFOHASH
7cc9e79e4a519bf29d99faa1960c9f593bddace9
SIZE
1.4 GB in 1 file
ADDED
Uploaded on 27-04-2020 by our crawler pet called "Spidey".
SWARM
0 seeders & 0 peers
RATING
No votes yet.

Please login to vote for this torrent.


Description

SCREENSHOTS

https://extraimage.info/pix/7cERl

MEDIAINFO

Video

ID                             : 1

Format                         : AVC

Format/Info                    : Advanced Video Codec

Format profile                 : [email protected]

Format settings, CABAC         : Yes

Format settings, RefFrames     : 4 frames

Codec ID                       : V_MPEG4/ISO/AVC

Duration                       : 1 h 57 min

Bit rate                       : 1 300 kb/s

Width                          : 720 pixels

Height                         : 302 pixels

Display aspect ratio           : 2.40:1

Frame rate mode                : Constant

Frame rate                     : 24.000 FPS

Color space                    : YUV

Chroma subsampling             : 4:2:0

Bit depth                      : 8 bits

Scan type                      : Progressive

Bits/(Pixel*Frame)             : 0.249

Stream size                    : 1.05 GiB (75%)

Writing library                : x264 core 142 r2479 dd79a61

Encoding settings              : cabac=1 / ref=1 / deblock=1:0:0 / analyse=0x3:0x3 / me=dia / subme=1 / psy=1 / psy_rd=1.00:0.00 / mixed_ref=0 / me_range=16 / chroma_me=1 / trellis=0 / 8x8dct=1 / cqm=0 / deadzone=21,11 / fast_pskip=1 / chroma_qp_offset=0 / threads=24 / lookahead_threads=2 / sliced_threads=0 / nr=0 / decimate=1 / interlaced=0 / bluray_compat=0 / constrained_intra=0 / bframes=3 / b_pyramid=2 / b_adapt=1 / b_bias=0 / direct=1 / weightb=1 / open_gop=0 / weightp=1 / keyint=240 / keyint_min=24 / scenecut=40 / intra_refresh=0 / rc_lookahead=0 / rc=abr / mbtree=0 / bitrate=1300 / ratetol=1.0 / qcomp=0.60 / qpmin=0 / qpmax=69 / qpstep=4 / vbv_maxrate=62500 / vbv_bufsize=78125 / nal_hrd=none / filler=0 / ip_ratio=1.40 / pb_ratio=1.30 / aq=1:1.00

Default                        : Yes

Forced                         : No

Color range                    : Limited

Color primaries                : BT.709

Transfer characteristics       : BT.709

Matrix coefficients            : BT.709



Audio

ID                             : 2

Format                         : AC-3

Format/Info                    : Audio Coding 3

Format settings, Endianness    : Big

Codec ID                       : A_AC3

Duration                       : 1 h 57 min

Bit rate mode                  : Constant

Bit rate                       : 384 kb/s

Channel(s)                     : 6 channels

Channel positions              : Front: L C R, Side: L R, LFE

Sampling rate                  : 48.0 kHz

Frame rate                     : 31.250 FPS (1536 SPF)

Bit depth                      : 16 bits

Compression mode               : Lossy

Delay relative to video        : -5 ms

Stream size                    : 323 MiB (23%)

Title                          : Surround

Language                       : English

Service kind                   : Complete Main

Default                        : Yes

Forced                         : No

Discussion

Comments 0

Post Your Comment

Files in this torrent

FILENAMESIZE
Extraction.2020.NEW.WATCH NOW.HDRip.XviD.AC3-EVO.avi1.4 GB

Alternative Torrents for 'Extraction WATCH NOW'.

TORRENT NAMEADDEDSIZESEEDSPEERSHEALTH
4/27/20201.4 GB00