Bloodshot 2020 BDRip X264 Rus 745Mb Stalkerok New-Team

Torrent Details

Bloodshot 2020 BDRip x264 Rus 745Mb stalkerok New<span style=color:#fc9c6d>-Team</span>
Bloodshot 2020 BDRip x264 Rus 745Mb stalkerok New<span style=color:#fc9c6d>-Team</span>

NAME
Bloodshot 2020 BDRip x264 Rus 745Mb stalkerok New-Team.torrent
CATEGORY
Movies
INFOHASH
84e910985354e5d2680b84826980842c5f2203ec
SIZE
743 MB in 1 file
ADDED
Uploaded on 27-04-2020 by our crawler pet called "Spidey".
SWARM
0 seeders & 0 peers
RATING
No votes yet.

Please login to vote for this torrent.


Description

Бладшот

Bloodshot



«Быть супергероем у него в крови»











Страна: США, Китай

Жанр: фантастика, боевик

Год выпуска: 2020

Продолжительность: 01:49:19



Перевод: Профессиональный (полное дублирование) [Пифагор | iTunes]

Субтитры: русские (форсированные, полные)

Оригинальная аудиодорожка: нет



Режиссер: Дэйв Уилсон / Dave Wilson



В ролях: Вин Дизель, Гай Пирс, Ламорн Моррис, Эйса Гонсалес, Сэм Хьюэн, Сиддхартх Дхананджай, Талула Райли, Тоби Кеббелл, Йоуханнес Хёйкьюр Йоуханнессон, Алекс Эрнандез



Описание: Военный Рэй Гаррисон возвращается из очередной горячей точки к любимой красавице-жене. Супруги проводят отпуск в Европе, но счастье длится недолго - террористы, не сумев вытянуть из Рэя нужную им информацию, убивают жену, а затем и его самого. Но вскоре корпорация RST возвращает его к жизни. Армия нанороботов в крови превратила Рэя в бессмертного Бладшота, и теперь солдат наделен сверхсилой и способностью мгновенно самоисцеляться, вот только память оставляет желать лучшего. Но вскоре воспоминания о последних мгновениях жизни возвращаются, и Бладшот отправляется мстить за смерть жены.







Релиз:



Автор рипа: stalkerok



Сэмпл



Качество видео: BDRip-AVC | Исходник: Bloodshot.2020.BDREMUX.1080p.seleZen

Формат видео: MKV

Видео кодек: AVC

Аудио кодек: AAC

Видео: AVC, 886 Кбит/сек, 790x330 (2.40:1), 23,976 кадр/сек

Аудио: AAC, 64 Кбит/сек, 48 КГц, 2.0 - русский

Навигация по главам: есть



x264/MediaInfo



---[Information] [27.04.2020 12:45:57] x264 [info]: frame I:1464 Avg QP:16.61 size: 28346

---[Information] [27.04.2020 12:45:57] x264 [info]: frame P:40308 Avg QP:20.67 size: 8799

---[Information] [27.04.2020 12:45:57] x264 [info]: frame B:115500 Avg QP:23.17 size: 2850

---[Information] [27.04.2020 12:45:57] x264 [info]: consecutive B-frames: 4.1% 5.7% 11.3% 31.1% 17.3% 19.1% 4.8% 3.0% 1.3% 0.7% 1.0% 0.2% 0.1% 0.1% 0.1% 0.1% 0.0%



General

Unique ID : 14304540466416183843875568787399154502 (0xAC2F44BDB93B60E1E469919A0049B46)

Complete name : C:tempBloodshot.2020Bloodshot.2020.BDRip.x264.Rus.745Mb.stalkerok.New-Team.mkv

Format : Matroska

Format version : Version 4

File size : 743 MiB

Duration : 1 h 49 min

Overall bit rate : 951 kb/s

Movie name : Bloodshot (2020) | Rip by stalkerok

Encoded date : UTC 2020-04-27 13:19:58

Writing application : mkvmerge v44.0.0 ('Domino') 64-bit

Writing library : libebml v1.3.10 + libmatroska v1.5.2



Video

ID : 1

Format : AVC

Format/Info : Advanced Video Codec

Format profile : [email protected]

Format settings : CABAC / 12 Ref Frames

Format settings, CABAC : Yes

Format settings, Reference frames : 12 frames

Codec ID : V_MPEG4/ISO/AVC

Duration : 1 h 49 min

Bit rate : 886 kb/s

Width : 790 pixels

Height : 330 pixels

Display aspect ratio : 2.40:1

Frame rate mode : Constant

Frame rate : 23.976 FPS

Color space : YUV

Chroma subsampling : 4:2:0

Bit depth : 8 bits

Scan type : Progressive

Bits/(Pixel*Frame) : 0.142

Stream size : 692 MiB (93%)

Title : Bloodshot (2020) | Rip by stalkerok

Writing library : x264 core 160 r3000 33f9e14

Encoding settings : cabac=1 / ref=12 / deblock=1:-2:-2 / analyse=0x3:0x133 / me=umh / subme=11 / psy=1 / psy_rd=1.00:0.00 / mixed_ref=1 / me_range=32 / chroma_me=1 / trellis=2 / 8x8dct=1 / cqm=0 / deadzone=21,11 / fast_pskip=0 / chroma_qp_offset=-2 / threads=10 / lookahead_threads=2 / sliced_threads=0 / nr=0 / decimate=1 / interlaced=0 / bluray_compat=0 / constrained_intra=0 / bframes=16 / b_pyramid=2 / b_adapt=2 / b_bias=0 / direct=3 / weightb=1 / open_gop=0 / weightp=2 / keyint=240 / keyint_min=23 / scenecut=40 / intra_refresh=0 / rc_lookahead=60 / rc=2pass / mbtree=0 / bitrate=886 / ratetol=1.0 / qcomp=0.65 / qpmin=0 / qpmax=69 / qpstep=4 / cplxblur=20.0 / qblur=0.5 / vbv_maxrate=50000 / vbv_bufsize=62500 / nal_hrd=none / filler=0 / ip_ratio=1.40 / pb_ratio=1.30 / aq=3:1.00

Default : Yes

Forced : No



Audio

ID : 2

Format : AAC LC SBR

Format/Info : Advanced Audio Codec Low Complexity with Spectral Band Replication

Commercial name : HE-AAC

Format settings : Explicit

Codec ID : A_AAC-2

Duration : 1 h 49 min

Bit rate : 64.0 kb/s

Channel(s) : 2 channels

Channel layout : L R

Sampling rate : 48.0 kHz

Frame rate : 23.438 FPS (2048 SPF)

Compression mode : Lossy

Delay relative to video : 31 ms

Stream size : 50.0 MiB (7%)

Language : Russian

Default : Yes

Forced : No



Text #1

ID : 3

Format : UTF-8

Codec ID : S_TEXT/UTF8

Codec ID/Info : UTF-8 Plain Text

Duration : 1 h 47 min

Bit rate : 0 b/s

Count of elements : 10

Stream size : 400 Bytes (0%)

Title : Forced

Language : Russian

Default : Yes

Forced : No



Text #2

ID : 4

Format : UTF-8

Codec ID : S_TEXT/UTF8

Codec ID/Info : UTF-8 Plain Text

Duration : 1 h 48 min

Bit rate : 72 b/s

Count of elements : 1072

Stream size : 57.8 KiB (0%)

Title : Full

Language : Russian

Default : No

Forced : No



Menu

00:00:00.000 : en:Chapter 01

00:07:06.384 : en:Chapter 02

00:13:56.210 : en:Chapter 03

00:20:36.861 : en:Chapter 04

00:25:05.546 : en:Chapter 05

00:32:11.179 : en:Chapter 06

00:41:41.499 : en:Chapter 07

00:46:39.380 : en:Chapter 08

00:53:35.629 : en:Chapter 09

01:02:28.495 : en:Chapter 10

01:08:59.344 : en:Chapter 11

01:12:42.525 : en:Chapter 12

01:19:15.918 : en:Chapter 13

01:26:49.996 : en:Chapter 14

01:31:07.379 : en:Chapter 15

01:38:31.531 : en:Chapter 16

01:44:11.245 : en:Chapter 17













Discussion

Comments 0

Post Your Comment

Files in this torrent

FILENAMESIZE
Bloodshot.2020.BDRip.x264.Rus.745Mb.stalkerok.New-Team.mkv743.3 MB

Alternative Torrents for 'Bloodshot Rus Mb stalkerok'.

TORRENT NAMEADDEDSIZESEEDSPEERSHEALTH
6/24/2020785 MB48768
6/25/2020870 MB29632
Yesterday761 MB6517
7/2/20202.2 GB656
6/26/2020740 MB6211
Yesterday102 MB5919
6/28/2020603 MB526
Yesterday2.6 GB5111
6/25/2020889 MB4527
6/23/20201.5 GB385
6/24/20202.2 GB371
7/3/2020895 MB348
6/26/20209.4 GB346
7/3/2020744 MB305
7/2/20201.5 GB297