Fantasy Island 2020 WEB-DLRip-AVC ExKinoRay

Torrent Details

Fantasy Island 2020 WEB-DLRip-AVC<span style=color:#fc9c6d> ExKinoRay</span>
Fantasy Island 2020 WEB-DLRip-AVC<span style=color:#fc9c6d> ExKinoRay</span>

NAME
Fantasy Island 2020 WEB-DLRip-AVC ExKinoRay.torrent
CATEGORY
Movies
INFOHASH
3c20ab161507d7af96fbbdc136df4ab0e44a565b
SIZE
746 MB in 1 file
ADDED
Uploaded on 27-04-2020 by our crawler pet called "Spidey".
SWARM
0 seeders & 0 peers
RATING
No votes yet.

Please login to vote for this torrent.


Description

Информация о фильме

Название: Остров фантазий

Оригинальное название: Fantasy Island

Год выхода: 2020

Жанр: Ужасы, триллер, фантастика

Режиссер: Джефф Уодлоу

В ролях: Майкл Пенья, Мэгги Кью, Люси Хэйл (II), Майкл Рукер, Остин Стоуэлл, Джимми О Ян, Райан Хэнсен, Портия Даблдэй, Париза Фитц-Хенли, Шарлотта Маккинни, Ким Коутс, Эван Эвагора, Горан Ди Клюе, Йен Робертс (II), Тэйн Уильямс-Аккра, Ник Слэйтер, Джошуа Диас, Джерия Бенн, Рене Мёрден, Марк Уэйнхэндл, Робби Джонс, Стивен Эй Дэвис, Тим Вонг



О фильме:

Чтобы исполнить самые сокровенные и смелые фантазии своих богатых клиентов, таинственный мистер Рорк приглашает всех желающих на красивый тропический остров в самом центре океана. Но остров хранит тайны и мистер Рорк рассказал не о всех нюансах выполнения желаний. Поэтому очень быстро все постояльцы попадают ужасный водоворот событий, из которого живыми выйдут не все...









Страна: США

Студия: Blumhouse Productions, Columbia Pictures Corporation

Продолжительность: 01:49:23

Перевод: Дублированный | iTunes



Файл

Формат: MKV

Качество: WEB-DLRip-AVC

Видео: MPEG-4 AVC, 760x316, - 876 Кбит/с

Аудио: AAC-HE, 2 ch, - 76 Кбит/с

Субтитры: Русские (Forced, full), английские



MIОбщее

Уникальный идентификатор : 96780209861924667357472195366242383523 (0x48CF30BF58B56A91130259822ACA76A3)

Полное имя : D:MOVIESFantasy.Island.2020.WEB-DLRip-AVC.ExKinoRay.mkv

Формат : Matroska

Версия формата : Version 4

Размер файла : 746 Мбайт

Продолжительность : 1 ч. 49 м.

Общий поток : 953 Кбит/сек

Дата кодирования : UTC 2020-04-27 13:55:13

Программа кодирования : mkvmerge v45.0.0 ('Heaven in Pennies') 64-bit

Библиотека кодирования : libebml v1.3.10 + libmatroska v1.5.2



Видео

Идентификатор : 1

Формат : AVC

Формат/Информация : Advanced Video Codec

Профиль формата : [email protected]

Настройки формата : CABAC / 11 Ref Frames

Параметр CABAC формата : Да

Параметр RefFrames формата : 11 кадров

Идентификатор кодека : V_MPEG4/ISO/AVC

Продолжительность : 1 ч. 49 м.

Битрейт : 876 Кбит/сек

Ширина : 760 пикселей

Высота : 316 пикселей

Соотношение сторон : 2,40:1

Режим частоты кадров : Постоянный

Частота кадров : 23,976 (24000/1001) кадра/сек

Цветовое пространство : YUV

Субдискретизация насыщенности : 4:2:0

Битовая глубина : 8 бит

Тип развёртки : Прогрессивная

Бит/(Пиксели*Кадры) : 0.152

Размер потока : 684 Мбайт (92%)

Библиотека кодирования : x264 core 160 r3000 33f9e14

Настройки программы : cabac=1 / ref=11 / deblock=1:-2:-2 / analyse=0x3:0x133 / me=umh / subme=10 / psy=1 / psy_rd=1.05:0.12 / mixed_ref=1 / me_range=32 / chroma_me=1 / trellis=2 / 8x8dct=1 / cqm=0 / deadzone=21,11 / fast_pskip=0 / chroma_qp_offset=-3 / threads=6 / lookahead_threads=1 / sliced_threads=0 / nr=0 / decimate=0 / interlaced=0 / bluray_compat=0 / constrained_intra=0 / bframes=12 / b_pyramid=2 / b_adapt=2 / b_bias=0 / direct=3 / weightb=1 / open_gop=0 / weightp=2 / keyint=240 / keyint_min=23 / scenecut=40 / intra_refresh=0 / rc_lookahead=40 / rc=2pass / mbtree=1 / bitrate=876 / ratetol=1.0 / qcomp=0.60 / qpmin=0 / qpmax=69 / qpstep=4 / cplxblur=20.0 / qblur=0.5 / ip_ratio=1.40 / aq=3:1.00

Default : Да

Forced : Нет



Аудио

Идентификатор : 2

Формат : AAC LC SBR

Формат/Информация : Advanced Audio Codec Low Complexity with Spectral Band Replication

Коммерческое название : HE-AAC

Настройки формата : Explicit

Идентификатор кодека : A_AAC-2

Продолжительность : 1 ч. 49 м.

Битрейт : 76,0 Кбит/сек

Каналы : 2 канала

Channel layout : L R

Частота : 48,0 КГц

Частота кадров : 23,438 кадра/сек (2048 SPF)

Метод сжатия : С потерями

Задержка видео : 31 мс.

Размер потока : 59,5 Мбайт (8%)

Язык : Russian

Default : Да

Forced : Нет



Текст #1

Идентификатор : 3

Формат : UTF-8

Идентификатор кодека : S_TEXT/UTF8

Идентификатор кодека/Информация : UTF-8 Plain Text

Продолжительность : 1 ч. 46 м.

Битрейт : 0 бит/сек

Count of elements : 3

Размер потока : 129 байт (0%)

Заголовок : Forced

Язык : Russian

Default : Да

Forced : Да



Текст #2

Идентификатор : 4

Формат : UTF-8

Идентификатор кодека : S_TEXT/UTF8

Идентификатор кодека/Информация : UTF-8 Plain Text

Продолжительность : 1 ч. 48 м.

Битрейт : 96 бит/сек

Count of elements : 1409

Размер потока : 76,3 Кбайт (0%)

Заголовок : Full

Язык : Russian

Default : Нет

Forced : Нет



Текст #3

Идентификатор : 5

Формат : UTF-8

Идентификатор кодека : S_TEXT/UTF8

Идентификатор кодека/Информация : UTF-8 Plain Text

Продолжительность : 1 ч. 46 м.

Битрейт : 61 бит/сек

Count of elements : 1581

Размер потока : 48,1 Кбайт (0%)

Заголовок : Full

Язык : English

Default : Нет

Forced : Нет



Текст #4

Идентификатор : 6

Формат : UTF-8

Идентификатор кодека : S_TEXT/UTF8

Идентификатор кодека/Информация : UTF-8 Plain Text

Продолжительность : 1 ч. 48 м.

Битрейт : 67 бит/сек

Count of elements : 1930

Размер потока : 53,5 Кбайт (0%)

Заголовок : SDH

Язык : English

Default : Нет

Forced : Нет



Меню

00:00:00.000 : en:1

00:08:46.985 : en:2

00:13:44.699 : en:3

00:18:47.710 : en:4

00:25:42.916 : en:5

00:32:40.750 : en:6

00:39:34.789 : en:7

00:45:24.513 : en:8

00:51:01.933 : en:9

00:55:38.125 : en:10

01:01:33.939 : en:11

01:09:39.883 : en:12

01:15:22.308 : en:13

01:23:02.810 : en:14

01:29:11.803 : en:15

01:40:04.121 : en:16

Скриншоты





Discussion

Comments 0

Post Your Comment

Files in this torrent

FILENAMESIZE
Fantasy.Island.2020.WEB-DLRip-AVC.ExKinoRay.mkv745.7 MB

Alternative Torrents for 'Fantasy Island DLRipAVC'.

TORRENT NAMEADDEDSIZESEEDSPEERSHEALTH
6/24/20201.2 GB1917
6/18/20201.5 GB996
6/18/20204 GB7810
6/18/202010 GB644
Yesterday326 MB547
Yesterday1.7 GB5033
6/28/2020855 MB4029
6/17/20201.8 GB3824
Yesterday496 MB366
Yesterday999 MB349
Yesterday1.4 GB347
Yesterday914 MB345
6/28/20201.7 GB3416
Today299 MB321
6/18/20202.2 GB315