Bloodshot (2020) BDRip-HEVC 1080p 10 Bit

Torrent Details

Bloodshot (2020) BDRip-HEVC 1080p 10 bit
Bloodshot (2020) BDRip-HEVC 1080p 10 bit

NAME
Bloodshot (2020) BDRip-HEVC 1080p 10 bit.torrent
CATEGORY
Movies
INFOHASH
d32c641c622c88db588264aacfa2da0b9f778f75
SIZE
6.4 GB in 1 file
ADDED
Uploaded on 27-04-2020 by our crawler pet called "Spidey".
SWARM
0 seeders & 0 peers
RATING
No votes yet.

Please login to vote for this torrent.


Description

Год выхода: 2020

Страна: США, Китай

Студия: Sony Pictures Entertainment (SPE), Bona Film Group, Columbia Pictures

Жанр: Фантастика, боевик, драма

Продолжительность: 01:49:20



Режиссер: Дэйв Уилсон

В ролях: Вин Дизель, Сэм Хьюэн, Эйса Гонсалес, Гай Пирс, Талула Райли, Тоби Кеббелл, Ламорн Моррис, Йоуханнес Хёйкьюр Йоуханнессон, Сиддхартх Дхананджай, Тайрел Мейер, Алекс Эн-лос



Описание: Корпорация RST возвращает к жизни недавно убитого солдата Рэя Гаррисона. Армия нанороботов в его крови превратила Рэя в бессмертного Бладшота, наделенного сверхчеловеческой силой и способностью мгновенно самоисцеляться. Контролируя тело Рэя, компания влияет на его разум и воспоминания. Но герой пойдет на все, чтобы выяснить правду.







Качество: BDRip 1080p

Видео: HEVC/x.265, 1920x804, ~7428 Kbps

Аудио 1: AC3, 6 ch, 384 Kbps - Русский, дублированный (Лицензия)

Аудио 2: AC3, 6 ch, 448 Kbps - Английский

Субтитры: Русские (форсированные, полные), английские (SDH)







Mediainfo

General

Unique ID : 336520721981910535752179657581125169558 (0xFD2B8895E477E1DF7D7CBE03CC4BF196)

Complete name : D:Bloodshot (2020) BDRip-HEVC 1080p 10 bit.mkv

Format : Matroska

Format version : Version 4

File size : 6.44 GiB

Duration : 1 h 49 min

Overall bit rate : 8 428 kb/s

Movie name : Бладшот

Writing application : XviD4PSP 7.0.499 PRO

Writing library : Lavf57.71.100

ErrorDetectionType : Per level 1

Attachments : poster.jpg

ACTORS : Вин Дизель, Гай Пирс,

COUNTRY : США

DATE : 2020

DIRECTOR : Дэйв Уилсон

ENCODING_INFO : MATROSKA,WEBM > MKV 1080p 10-bit / H264 > X265 CRF 19.5 Slower / AC3 > AC3 CBR 384kbps / DTS-HD MA > AC3 CBR 448kbps

GENRE : фантастика, боевик

HD_VIDEO : 1

Language : und

MEDIA_TYPE : 9

ORIGINAL_TITLE : Bloodshot



Video

ID : 1

Format : HEVC

Format/Info : High Efficiency Video Coding

Format profile : Main [email protected]@High

Codec ID : V_MPEGH/ISO/HEVC

Duration : 1 h 49 min

Bit rate : 7 428 kb/s

Width : 1 920 pixels

Height : 804 pixels

Display aspect ratio : 2.40:1

Frame rate mode : Constant

Frame rate : 23.976 (24000/1001) FPS

Color space : YUV

Chroma subsampling : 4:2:0

Bit depth : 10 bits

Bits/(Pixel*Frame) : 0.201

Stream size : 5.67 GiB (88%)

Writing library : x265 3.1+7-147fb92c5ed5:[Windows][clang 8.0.0][64 bit] 10bit

Encoding settings : cpuid=1111039 / frame-threads=7 / wpp / no-pmode / no-pme / no-psnr / no-ssim / log-level=3 / input-csp=1 / input-res=1920x804 / interlace=0 / total-frames=0 / level-idc=41 / high-tier=1 / uhd-bd=0 / ref=5 / allow-non-conformance / no-repeat-headers / annexb / no-aud / no-hrd / info / hash=0 / no-temporal-layers / open-gop / min-keyint=23 / keyint=240 / gop-lookahead=0 / bframes=16 / b-adapt=2 / b-pyramid / bframe-bias=0 / rc-lookahead=60 / lookahead-slices=4 / scenecut=40 / radl=0 / no-splice / no-intra-refresh / ctu=32 / min-cu-size=8 / rect / no-amp / max-tu-size=32 / tu-inter-depth=4 / tu-intra-depth=4 / limit-tu=1 / rdoq-level=2 / dynamic-rd=0.00 / no-ssim-rd / signhide / no-tskip / nr-intra=0 / nr-inter=0 / no-constrained-intra / no-strong-intra-smoothing / max-merge=5 / limit-refs=2 / limit-modes / me=3 / subme=7 / merange=57 / temporal-mvp / no-hme / weightp / weightb / no-analyze-src-pics / deblock=-3:-3 / no-sao / no-sao-non-deblock / rd=4 / no-early-skip / no-rskip / no-fast-intra / no-tskip-fast / no-cu-lossless / no-b-intra / no-splitrd-skip / rdpenalty=0 / psy-rd=2.00 / psy-rdoq=1.00 / no-rd-refine / no-lossless / cbqpoffs=0 / crqpoffs=0 / rc=crf / crf=19.5 / qcomp=0.65 / qpstep=4 / stats-write=0 / stats-read=0 / vbv-maxrate=50000 / vbv-bufsize=50000 / vbv-init=0.9 / crf-max=30.0 / crf-min=0.0 / ipratio=1.40 / pbratio=1.30 / aq-mode=2 / aq-strength=1.00 / no-cutree / zone-count=0 / no-strict-cbr / qg-size=32 / no-rc-grain / qpmax=69 / qpmin=0 / no-const-vbv / sar=1 / overscan=0 / videoformat=5 / range=0 / colorprim=1 / transfer=1 / colormatrix=1 / chromaloc=0 / display-window=0cll=0,0 / min-luma=0 / max-luma=1023 / log2-max-poc-lsb=8 / vui-timing-info / vui-hrd-info / slices=1 / no-opt-qp-pps / no-opt-ref-list-length-pps / no-multi-pass-opt-rps / scenecut-bias=0.05 / no-opt-cu-delta-qp / no-aq-motion / no-hdr / no-hdr-opt / no-dhdr10-opt / no-idr-recovery-sei / analysis-reuse-level=5 / scale-factor=0 / refine-intra=0 / refine-inter=0 / refine-mv=0 / refine-ctu-distortion=0 / no-limit-sao / ctu-info=0 / no-lowpass-dct / refine-analysis-type=262148 / copy-pic=1 / max-ausize-factor=1.0 / no-dynamic-refine / no-single-sei / no-hevc-aq / no-svt / no-field / qp-adaptation-range=1.00

Language : English

Default : Yes

Forced : No

Color range : Limited

Color primaries : BT.709

Transfer characteristics : BT.709

Matrix coefficients : BT.709



Audio #1

ID : 2

Format : AC-3

Format/Info : Audio Coding 3

Commercial name : Dolby Digital

Codec ID : A_AC3

Duration : 1 h 49 min

Bit rate mode : Constant

Bit rate : 384 kb/s

Channel(s) : 6 channels

Channel layout : L R C LFE Ls Rs

Sampling rate : 48.0 kHz

Frame rate : 31.250 FPS (1536 SPF)

Bit depth : 32 bits

Compression mode : Lossy

Stream size : 300 MiB (5%)

Title : iTunes

Language : Russian

Service kind : Complete Main

Default : Yes

Forced : Yes



Audio #2

ID : 3

Format : AC-3

Format/Info : Audio Coding 3

Commercial name : Dolby Digital

Codec ID : A_AC3

Duration : 1 h 49 min

Bit rate mode : Constant

Bit rate : 448 kb/s

Channel(s) : 6 channels

Channel layout : L R C LFE Ls Rs

Sampling rate : 48.0 kHz

Frame rate : 31.250 FPS (1536 SPF)

Bit depth : 16 bits

Compression mode : Lossy

Stream size : 350 MiB (5%)

Title : Original

Language : English

Service kind : Complete Main

Default : Yes

Forced : No



Text #1

ID : 4

Format : UTF-8

Codec ID : S_TEXT/UTF8

Codec ID/Info : UTF-8 Plain Text

Title : Forced

Language : Russian

Default : Yes

Forced : Yes



Text #2

ID : 5

Format : UTF-8

Codec ID : S_TEXT/UTF8

Codec ID/Info : UTF-8 Plain Text

Title : Full

Language : Russian

Default : Yes

Forced : No



Text #3

ID : 6

Format : UTF-8

Codec ID : S_TEXT/UTF8

Codec ID/Info : UTF-8 Plain Text

Title : Full

Language : English

Default : No

Forced : No



Text #4

ID : 7

Format : UTF-8

Codec ID : S_TEXT/UTF8

Codec ID/Info : UTF-8 Plain Text

Title : SDH

Language : English

Default : No

Forced : No



Menu

00:00:00.000 : :Chapter 01

00:07:06.384 : :Chapter 02

00:13:56.210 : :Chapter 03

00:20:36.861 : :Chapter 04

00:25:05.546 : :Chapter 05

00:32:11.179 : :Chapter 06

00:41:41.499 : :Chapter 07

00:46:39.380 : :Chapter 08

00:53:35.629 : :Chapter 09

01:02:28.495 : :Chapter 10

01:08:59.344 : :Chapter 11

01:12:42.525 : :Chapter 12

01:19:15.918 : :Chapter 13

01:26:49.996 : :Chapter 14

01:31:07.379 : :Chapter 15

01:38:31.531 : :Chapter 16

01:44:11.245 : :Chapter 17

Скриншоты





Релиз от: DONATIK

Discussion

Comments 0

Post Your Comment

Files in this torrent

FILENAMESIZE
Bloodshot (2020) BDRip-HEVC 1080p 10 bit.mkv6.4 GB

Alternative Torrents for 'Bloodshot HEVC bit'.

TORRENT NAMEADDEDSIZESEEDSPEERSHEALTH
4/27/20206.4 GB00