Bloodshot (2020) (1080p BDRip X265 10bit TrueHD 7.1 Atmos - R0b0t) [TAoE]

Torrent Details

Bloodshot (2020) (1080p BDRip x265 10bit TrueHD 7.1 Atmos - r0b0t) <span style=color:#fc9c6d>[TAoE]</span>
Bloodshot (2020) (1080p BDRip x265 10bit TrueHD 7.1 Atmos - r0b0t) <span style=color:#fc9c6d>[TAoE]</span>

NAME
Bloodshot (2020) (1080p BDRip x265 10bit TrueHD 7.1 Atmos - r0b0t) [TAoE].torrent
CATEGORY
Movies
INFOHASH
4cc67e2059355c7872bb6d6492d11a85006620f5
SIZE
7.1 GB in 1 file
ADDED
Uploaded on 29-04-2020 by our crawler pet called "Spidey".
SWARM
0 seeders & 0 peers
RATING
No votes yet.

Please login to vote for this torrent.


Description









Bloodshot (2020) IMDB















Media Information

General

Unique ID                      : 99244860185160047343119767419350842528 (0x4AA9DD63E83C468A780A7A0DC46E7CA0)

Complete name                  : Bloodshot (2020) (1080p BDRip x265 10bit TrueHD 7.1 Atmos - r0b0t) [TAoE].mkv

Format                         : Matroska

Format version                 : Version 4 / Version 2

File size                      : 7.13 GiB

Duration                       : 1 h 49 min

Overall bit rate mode          : Variable

Overall bit rate               : 9 338 kb/s

Movie name                     : Bloodshot

Writing application            : Lavf58.29.100

Writing library                : Lavf58.29.100 / Lavf58.29.100

ErrorDetectionType             : Per level 1

IMDB                           : tt1634106

TMDB                           : movie/338762



Video

ID                             : 1

Format                         : HEVC

Format/Info                    : High Efficiency Video Coding

Format profile                 : Main [email protected]@Main

Codec ID                       : V_MPEGH/ISO/HEVC

Duration                       : 1 h 49 min

Width                          : 1 920 pixels

Height                         : 1 080 pixels

Display aspect ratio           : 16:9

Frame rate mode                : Constant

Frame rate                     : 23.976 (24000/1001) FPS

Color space                    : YUV

Chroma subsampling             : 4:2:0

Bit depth                      : 10 bits

Title                          : Encoded by r0b0t for TAoE

Writing library                : x265 3.2+35-acc5d16999e2:[Windows][GCC 9.2.1][64 bit] 10bit

Encoding settings              : cpuid=1049583 / frame-threads=5 / numa-pools=16,16 / wpp / no-pmode / no-pme / no-psnr / no-ssim / log-level=2 / input-csp=1 / input-res=1920x1080 / interlace=0 / total-frames=0 / level-idc=0 / high-tier=1 / uhd-bd=0 / ref=4 / no-allow-non-conformance / no-repeat-headers / annexb / no-aud / no-hrd / info / hash=0 / no-temporal-layers / open-gop / min-keyint=23 / keyint=250 / gop-lookahead=0 / bframes=8 / b-adapt=2 / b-pyramid / bframe-bias=0 / rc-lookahead=80 / lookahead-slices=4 / scenecut=40 / hist-scenecut=0 / radl=0 / no-splice / no-intra-refresh / ctu=64 / min-cu-size=8 / no-rect / no-amp / max-tu-size=32 / tu-inter-depth=1 / tu-intra-depth=1 / limit-tu=0 / rdoq-level=2 / dynamic-rd=0.00 / no-ssim-rd / signhide / no-tskip / nr-intra=0 / nr-inter=0 / no-constrained-intra / no-strong-intra-smoothing / max-merge=3 / limit-refs=3 / limit-modes / me=3 / subme=5 / merange=57 / temporal-mvp / no-frame-dup / no-hme / weightp / no-weightb / no-analyze-src-pics / deblock=0:0 / sao / no-sao-non-deblock / rd=4 / selective-sao=4 / no-early-skip / rskip / no-fast-intra / no-tskip-fast / no-cu-lossless / no-b-intra / no-splitrd-skip / rdpenalty=0 / psy-rd=1.30 / psy-rdoq=2.00 / no-rd-refine / no-lossless / cbqpoffs=0 / crqpoffs=0 / rc=crf / crf=18.0 / qcomp=0.60 / qpstep=4 / stats-write=0 / stats-read=0 / ipratio=1.40 / pbratio=1.30 / aq-mode=4 / aq-strength=1.10 / cutree / zone-count=0 / no-strict-cbr / qg-size=32 / no-rc-grain / qpmax=69 / qpmin=0 / no-const-vbv / sar=1 / overscan=0 / videoformat=5 / range=0 / colorprim=2 / transfer=2 / colormatrix=2 / chromaloc=0 / display-window=0 / cll=0,0 / min-luma=0 / max-luma=1023 / log2-max-poc-lsb=8 / vui-timing-info / vui-hrd-info / slices=1 / no-opt-qp-pps / no-opt-ref-list-length-pps / no-multi-pass-opt-rps / scenecut-bias=0.05 / hist-threshold=0.01 / no-opt-cu-delta-qp / no-aq-motion / no-hdr10 / no-hdr10-opt / no-dhdr10-opt / no-idr-recovery-sei / analysis-reuse-level=0 / analysis-save-reuse-level=0 / analysis-load-reuse-level=0 / scale-factor=0 / refine-intra=0 / refine-inter=0 / refine-mv=1 / refine-ctu-distortion=0 / no-limit-sao / ctu-info=0 / no-lowpass-dct / refine-analysis-type=0 / copy-pic=1 / max-ausize-factor=1.0 / no-dynamic-refine / no-single-sei / no-hevc-aq / no-svt / no-field / qp-adaptation-range=1.00 / no-scenecut-aware-qpconformance-window-offsets / right=0 / bottom=0

Default                        : Yes

Forced                         : No

Color range                    : Limited

Statistics Tags Issue          : mkvpropedit v28.2.0 ('The Awakening') 64-bit 2020-04-28 18:15:42 / Lavf58.29.100

FromStats_BitRate              : 5335308

FromStats_Duration             : 01:49:19.552708333

FromStats_FrameCount           : 157272

FromStats_StreamSize           : 4374654090



Audio #1

ID                             : 2

Format                         : Atmos / TrueHD

Codec ID                       : A_TRUEHD

Bit rate mode                  : Variable

Maximum bit rate               : 5 454 kb/s

Channel(s)                     : Object Based / 8 channels

Channel positions              : Object Based / Front: L C R, Side: L R, Back: L R, LFE

Sampling rate                  :  / 48.0 kHz

Frame rate                     : 1 200.000 FPS (40 spf)

Bit depth                      : 24 bits

Compression mode               : Lossless

Title                          : TrueHD Atmos 7.1

Language                       : English

Default                        : Yes

Forced                         : No

Statistics Tags Issue          : mkvpropedit v28.2.0 ('The Awakening') 64-bit 2020-04-28 18:15:42 / Lavf58.29.100

FromStats_BitRate              : 3188477

FromStats_Duration             : 01:49:19.553000000

FromStats_FrameCount           : 7871464

FromStats_StreamSize           : 2614373228



Audio #2

ID                             : 3

Format                         : AC-3

Format/Info                    : Audio Coding 3

Mode extension                 : CM (complete main)

Format settings, Endianness    : Big

Codec ID                       : A_AC3

Duration                       : 1 h 49 min

Bit rate mode                  : Constant

Bit rate                       : 640 kb/s

Channel(s)                     : 6 channels

Channel positions              : Front: L C R, Side: L R, LFE

Sampling rate                  : 48.0 kHz

Frame rate                     : 31.250 FPS (1536 spf)

Bit depth                      : 16 bits

Compression mode               : Lossy

Stream size                    : 500 MiB (7%)

Title                          : AC3 5.1

Language                       : English

Default                        : No

Forced                         : No

Statistics Tags Issue          : mkvpropedit v28.2.0 ('The Awakening') 64-bit 2020-04-28 18:15:42 / Lavf58.29.100

FromStats_BitRate              : 640003

FromStats_Duration             : 01:49:19.552000000

FromStats_FrameCount           : 204987

FromStats_StreamSize           : 524766720



Menu

00:00:00.000                   : :Chapter 01

00:07:06.384                   : :Chapter 02

00:13:56.210                   : :Chapter 03

00:20:36.861                   : :Chapter 04

00:25:05.546                   : :Chapter 05

00:32:11.179                   : :Chapter 06

00:41:41.499                   : :Chapter 07

00:46:39.380                   : :Chapter 08

00:53:35.629                   : :Chapter 09

01:02:28.495                   : :Chapter 10

01:08:59.344                   : :Chapter 11

01:12:42.525                   : :Chapter 12

01:19:15.918                   : :Chapter 13

01:26:49.996                   : :Chapter 14

01:31:07.379                   : :Chapter 15

01:38:31.531                   : :Chapter 16

01:44:11.245                   : :Chapter 17





Source Information

General

Unique ID                                : 174107749485782594505994774138181331011 (0x82FBEECDD876BC56AE17F5033B8F2843)

Complete name                            : Bloodshot.2020.BluRay.1080p.TrueHD.Atmos.7.1.AVC.HYBRID.REMUX-FraMeSToR.mkv

Format                                   : Matroska

Format version                           : Version 4

File size                                : 22.2 GiB

Duration                                 : 1 h 49 min

Overall bit rate mode                    : Variable

Overall bit rate                         : 29.1 Mb/s

Movie name                               : Bloodshot

Encoded date                             : UTC 2020-04-26 11:38:38

Writing application                      : mkvmerge v45.0.0 ('Heaven in Pennies') 64-bit

Writing library                          : libebml v1.3.10 + libmatroska v1.5.2

IMDB                                     : tt1634106

TMDB                                     : movie/338762



Video

ID                                       : 1

Format                                   : AVC

Format/Info                              : Advanced Video Codec

Format profile                           : [email protected]

Format settings                          : CABAC / 2 Ref Frames

Format settings, CABAC                   : Yes

Format settings, Reference frames        : 2 frames

Codec ID                                 : V_MPEG4/ISO/AVC

Duration                                 : 1 h 49 min

Bit rate mode                            : Variable

Bit rate                                 : 25.1 Mb/s

Width                                    : 1 920 pixels

Height                                   : 1 080 pixels

Display aspect ratio                     : 16:9

Frame rate mode                          : Constant

Frame rate                               : 23.976 (24000/1001) FPS

Color space                              : YUV

Chroma subsampling                       : 4:2:0

Bit depth                                : 8 bits

Scan type                                : Progressive

Bits/(Pixel*Frame)                       : 0.504

Stream size                              : 19.1 GiB (86%)

Default                                  : Yes

Forced                                   : No



Audio #1

ID                                       : 2

Format                                   : MLP FBA 16-ch

Format/Info                              : Meridian Lossless Packing FBA with 16-channel presentation

Commercial name                          : Dolby TrueHD with Dolby Atmos

Codec ID                                 : A_TRUEHD

Duration                                 : 1 h 49 min

Bit rate mode                            : Variable

Bit rate                                 : 3 188 kb/s

Maximum bit rate                         : 5 454 kb/s

Channel(s)                               : 8 channels

Channel layout                           : L R C LFE Ls Rs Lb Rb

Sampling rate                            : 48.0 kHz

Frame rate                               : 1 200.000 FPS (40 SPF)

Compression mode                         : Lossless

Stream size                              : 2.43 GiB (11%)

Title                                    : TrueHD Atmos 7.1

Language                                 : English

Default                                  : Yes

Forced                                   : No

Number of dynamic objects                : 11

Bed channel count                        : 1 channel

Bed channel configuration                : LFE



Audio #2

ID                                       : 3

Format                                   : AC-3

Format/Info                              : Audio Coding 3

Commercial name                          : Dolby Digital

Codec ID                                 : A_AC3

Duration                                 : 1 h 49 min

Bit rate mode                            : Constant

Bit rate                                 : 640 kb/s

Channel(s)                               : 6 channels

Channel layout                           : L R C LFE Ls Rs

Sampling rate                            : 48.0 kHz

Frame rate                               : 31.250 FPS (1536 SPF)

Compression mode                         : Lossy

Stream size                              : 500 MiB (2%)

Title                                    : AC3 5.1

Language                                 : English

Service kind                             : Complete Main

Default                                  : No

Forced                                   : No



Menu

00:00:00.000                             : en:Chapter 01

00:07:06.384                             : en:Chapter 02

00:13:56.210                             : en:Chapter 03

00:20:36.861                             : en:Chapter 04

00:25:05.546                             : en:Chapter 05

00:32:11.179                             : en:Chapter 06

00:41:41.499                             : en:Chapter 07

00:46:39.380                             : en:Chapter 08

00:53:35.629                             : en:Chapter 09

01:02:28.495                             : en:Chapter 10

01:08:59.344                             : en:Chapter 11

01:12:42.525                             : en:Chapter 12

01:19:15.918                             : en:Chapter 13

01:26:49.996                             : en:Chapter 14

01:31:07.379                             : en:Chapter 15

01:38:31.531                             : en:Chapter 16

01:44:11.245                             : en:Chapter 17



Source

BluRay 1080p TrueHD Atmos 7.1 AVC HYBRID REMUX-FraMeSToR



Thanks To FraMeSToR & Goki



Hello everyone,

We are TAoE, a small team of passionate encoders who love encoding. We try our best to provide you with high quality releases.

If you would like to join the team just drop us a comment or send us a message.





.........................................................................................................................................

Discussion

Comments 0

Post Your Comment

Files in this torrent

FILENAMESIZE
Bloodshot (2020) (1080p BDRip x265 10bit TrueHD 7.1 Atmos - r0b0t) [TAoE].mkv7.1 GB

Alternative Torrents for 'Bloodshot bit TrueHD Atmos rbt'.

TORRENT NAMEADDEDSIZESEEDSPEERSHEALTH
6/17/20205 GB13813
6/19/20205.4 GB1324
6/26/202011.3 GB11955
6/26/202021.2 GB11623
6/23/20207.8 GB4411
6/27/20201.3 GB425
6/17/20201.2 GB4212
6/22/20204.7 GB419
6/19/20204.9 GB4033
6/18/20209.1 GB4026
6/26/20201.1 GB382
6/22/202076.4 GB3720
6/27/202017.5 GB3542
6/26/20209.4 GB338
6/25/202023.4 GB3013