Shakespeare And Hathaway Private Investigators S03 1080p BDRip

Torrent Details

Shakespeare And Hathaway Private Investigators S03 1080p BDRip

NAME
Shakespeare And Hathaway Private Investigators S03 1080p BDRip.torrent
CATEGORY
Television
INFOHASH
b7365affa1d4d8747f1c289fbf5d39cab3c0272c
SIZE
33.3 GB in 10 files
ADDED
Uploaded on 30-04-2020 by our crawler pet called "Spidey".
SWARM
0 seeders & 0 peers
RATING
No votes yet.

Please login to vote for this torrent.


Description

Информация о фильме

Название: Шекспир и Хэтэуэй: Частные детективы

Оригинальное название: Shakespeare And Hathaway: Private Investigators

Год выхода: 2020

Жанр: Детектив, драма, комедия

Режиссер: Йен Барбер, Пол Гибсон, Джон Грининг, Дженни Пэддон, Миранда Ховард-Уильямс

В ролях: Марк Бентон, Джо Джойнер, Патрик Уолш МакБрайд, Ясмин Каур Барн, Томос Имс, Роберта Тейлор



О фильме:

Детективы бывают разные. Но, пожалуй, таких, как Шекспир и Хэтэуэй, вы ещё не встречали. До того, как они встретились, оба были неудачниками: Фрэнк Хэтэуэй – бывший инспектор полиции, еле-еле сводящий концы с концами. Он неуклюж и ленив, но наблюдателен и имеет приличный опыт в работе. Луэлла Шекспир – парикмахер, познакомившаяся в интернете с мужчиной, за которого тут же собралась замуж. Будущие напарники встречаются тогда, когда Луэлла нанимает Хэтэуэя для слежки за женихом. В итоге жених убит, полиция подозревает безутешную невесту, а тут ещё и все её деньги пропали… Не без помощи Хэтэуэя, Шекспир выпутывается из этой истории и предлагает ему компаньонство. Фрэнку ничего не остаётся, как согласиться на эту авантюру...









Страна: Великобритания

Студия: British Broadcasting Corporation (BBC)

Продолжительность: 10 x ~ 00:45:00

Перевод: Профессиональный (многоголосый закадровый) - TVShows

Список серий01. Как плут вопил | How the Rogue Roar'd

02. Взгляни ты на себя, злой дух! | See Thyself, Devil!

03. Натяни решимость на колки | The Sticking Place

04. Укус змеи | A Serpent's Tooth

05. Ярость твоя изжита | Thy Fury Spent

06. Репутация, репутация, репутация! | Reputation, Reputation, Reputation!

07. Так жала берегись | Best Beware My Sting

08. Не все то злато | All That Glisters

09. О дух, скрытый в вине | O Thou Invisible Spirit of Wine

10. Учи меня, прелестное создание | Teach Me, Dear Creature


Файл

Кодек: h 264

Качество: BDRip 1080p

Видео: MPEG-4 AVC, 1920x1080 (16:9), 25.0 fps, ~9.85 Mb/s, 0.187 bpp

Звук:

Русский: AC3, 48 kHz, 2 ch, 192 kbps

Английский: DTS, 48 kHz, 6 ch, 768 kbps

Субтитры: Английские (SRT)MediaInfoGeneral

Unique ID : 233353392779080926252553805077562969070 (0xAF8E3A8AA0276CF495FACE010022CBEE)

Complete name : J:...Shakespeare.And.Hathaway.Private.Investigators.S03.1080p.BDRipShakespeare.And.Hathaway.Private.Investigators.S03E01.1080p.BDRip.Rus.Eng.mkv

Format : Matroska

Format version : Version 4

File size : 3.33 GiB

Duration : 44 min 55 s

Overall bit rate : 10.6 Mb/s

Encoded date : UTC 2020-04-22 01:09:00

Writing application : mkvmerge v7.3.0 ('Nouages') 64bit built on Oct 22 2014 18:53:34

Writing library : libebml v1.3.0 + libmatroska v1.4.1



Video

ID : 1

Format : AVC

Format/Info : Advanced Video Codec

Format profile : [email protected]

Format settings : CABAC / 4 Ref Frames

Format settings, CABAC : Yes

Format settings, Reference : 4 frames

Codec ID : V_MPEG4/ISO/AVC

Duration : 44 min 55 s

Bit rate : 9 672 kb/s

Width : 1 920 pixels

Height : 1 080 pixels

Display aspect ratio : 16:9

Frame rate mode : Constant

Frame rate : 25.000 FPS

Color space : YUV

Chroma subsampling : 4:2:0

Bit depth : 8 bits

Scan type : Progressive

Bits/(Pixel*Frame) : 0.187

Stream size : 3.03 GiB (91%)

Writing library : x264 core 159 r2991 1771b55

Encoding settings : cabac=1 / ref=4 / deblock=1:-3:-3 / analyse=0x3:0x113 / me=umh / subme=8 / psy=1 / psy_rd=1.00:0.00 / mixed_ref=1 / me_range=32 / chroma_me=1 / trellis=2 / 8x8dct=1 / cqm=0 / deadzone=21,11 / fast_pskip=1 / chroma_qp_offset=-2 / threads=18 / lookahead_threads=3 / sliced_threads=0 / nr=0 / decimate=1 / interlaced=0 / bluray_compat=0 / constrained_intra=0 / bframes=3 / b_pyramid=2 / b_adapt=2 / b_bias=0 / direct=3 / weightb=1 / open_gop=0 / weightp=2 / keyint=250 / keyint_min=25 / scenecut=40 / intra_refresh=0 / rc_lookahead=50 / rc=2pass / mbtree=1 / bitrate=9672 / ratetol=1.0 / qcomp=0.60 / qpmin=0 / qpmax=69 / qpstep=4 / cplxblur=20.0 / qblur=0.5 / ip_ratio=1.40 / aq=3:0.80

Default : Yes

Forced : No



Audio #1

ID : 2

Format : AC-3

Format/Info : Audio Coding 3

Commercial name : Dolby Digital

Codec ID : A_AC3

Duration : 44 min 50 s

Bit rate mode : Constant

Bit rate : 192 kb/s

Channel(s) : 2 channels

Channel layout : L R

Sampling rate : 48.0 kHz

Frame rate : 31.250 FPS (1536 SPF)

Compression mode : Lossy

Stream size : 61.6 MiB (2%)

Title : TVShows

Language : Russian

Service kind : Complete Main

Default : Yes

Forced : No



Audio #2

ID : 3

Format : DTS

Format/Info : Digital Theater Systems

Codec ID : A_DTS

Duration : 44 min 55 s

Bit rate mode : Constant

Bit rate : 768 kb/s

Channel(s) : 6 channels

Channel layout : C L R Ls Rs LFE

Sampling rate : 48.0 kHz

Frame rate : 93.750 FPS (512 SPF)

Bit depth : 24 bits

Compression mode : Lossy

Stream size : 247 MiB (7%)

Language : English

Default : No

Forced : No



Text

ID : 4

Format : UTF-8

Codec ID : S_TEXT/UTF8

Codec ID/Info : UTF-8 Plain Text

Duration : 43 min 22 s

Bit rate : 92 b/s

Count of elements : 861

Stream size : 29.3 KiB (0%)

Language : English

Default : No

Forced : No



Menu

00:00:00.000 : en:Chapter 01

00:09:49.680 : en:Chapter 02

00:20:23.040 : en:Chapter 03

00:29:51.880 : en:Chapter 04Релиз без рекламы



Скриншоты

Discussion

Comments 0

Post Your Comment

Files in this torrent

FILENAMESIZE
Shakespeare.And.Hathaway.Private.Investigators.S03E01.1080p.BDRip.Rus.Eng.mkv3.3 GB
Shakespeare.And.Hathaway.Private.Investigators.S03E02.1080p.BDRip.Rus.Eng.mkv3.3 GB
Shakespeare.And.Hathaway.Private.Investigators.S03E03.1080p.BDRip.Rus.Eng.mkv3.3 GB
Shakespeare.And.Hathaway.Private.Investigators.S03E04.1080p.BDRip.Rus.Eng.mkv3.3 GB
Shakespeare.And.Hathaway.Private.Investigators.S03E05.1080p.BDRip.Rus.Eng.mkv3.3 GB
Shakespeare.And.Hathaway.Private.Investigators.S03E06.1080p.BDRip.Rus.Eng.mkv3.3 GB
Shakespeare.And.Hathaway.Private.Investigators.S03E07.1080p.BDRip.Rus.Eng.mkv3.3 GB
Shakespeare.And.Hathaway.Private.Investigators.S03E08.1080p.BDRip.Rus.Eng.mkv3.3 GB
Shakespeare.And.Hathaway.Private.Investigators.S03E09.1080p.BDRip.Rus.Eng.mkv3.3 GB
Shakespeare.And.Hathaway.Private.Investigators.S03E10.1080p.BDRip.Rus.Eng.mkv3.3 GB

Alternative Torrents for 'Shakespeare And Hathaway Private Investigators'.

TORRENT NAMEADDEDSIZESEEDSPEERSHEALTH
10/2/202032.8 GB00
4/30/202033.3 GB00
4/25/202033.3 GB00
3/23/20202.9 GB00
3/21/2020794 MB00
3/21/2020268 MB00
3/13/20202.5 GB00
3/9/20202.5 GB00
3/8/20202.4 GB00
3/2/2020808 MB00
3/2/20201.5 GB00
3/2/2020855 MB00
2/24/2020824 MB00
2/17/2020725 MB00
2/8/20201.6 GB00