Extraction 2020 NF WEB-DL 2160p HDR SeleZen

Torrent Details

Extraction 2020 NF WEB-DL 2160p HDR<span style=color:#fc9c6d> seleZen</span>
Extraction 2020 NF WEB-DL 2160p HDR<span style=color:#fc9c6d> seleZen</span>

NAME
Extraction 2020 NF WEB-DL 2160p HDR seleZen.torrent
CATEGORY
Movies
INFOHASH
d5d42189024b0ffedd862390dc41f3a48a0e9a7c
SIZE
14.3 GB in 1 file
ADDED
Uploaded on 01-05-2020 by our crawler pet called "Spidey".
SWARM
0 seeders & 0 peers
RATING
No votes yet.

Please login to vote for this torrent.


Description

Информация о фильме

Название: Тайлер Рейк: Операция по спасению / Эвакуация

Оригинальное название: Extraction

Год выхода: 2020

Жанр: Боевик

Режиссер: Сэм Харгрейв

В ролях: Крис Хемсворт, Голшифте Фарахани, Дэвид Харбор, Рудракш Джайсвал, Рандип Худа, Панкадж Трипати, Крис Джай Алекс, Прияншу Пайнюли, Шатаф Фигар, Патрик Ньюэлл







О фильме: Наёмнику Тайлеру Рэйку поручают освободить сына международного преступника. Мальчик — пешка в войне двух наркобаронов, и его держат в заложниках в городе Дакка, столице государства Бангладеш и одном из самых неприступных мест в мире.



Страна: США

Студия: India Take One Productions, Russo Brothers, T.G.I.M Films, Thematic Entertainment

Продолжительность: 01:57:26

Перевод: Дублированный | Netflix



Качество: WEB-DL 2160p

Видео: 3840x1604 at 24.000 fps, MPEG-H HEVC HDR Video, 15500 kbps avg

Аудио #01: 48 kHz, AC3, 5.1, 640 Kbps | Дублированный | RUS |

Аудио #02: 48 kHz, E-AC3, 5.1, 640 Kbps | Дублированный | RUS |

Аудио #03: 48 kHz, AC3 + Atmos, 5.1, 768 Kbps | Оригинал | ENG |

Субтитры: Русские (Forced, full), английские







MIGeneral

Unique ID : 190056625419490304108142963038870643637 (0x8EFB9319258F51F408424A5F7A1523B5)

Complete name : E:Video111Extraction.2020.NF.WEB-DL.2160p.HDR.seleZen.mkv

Format : Matroska

Format version : Version 4

File size : 14.3 GiB

Duration : 1 h 57 min

Overall bit rate : 17.4 Mb/s

Movie name : Extraction 2020 from селезень

Encoded date : UTC 2020-05-01 09:20:56

Writing application : mkvmerge v40.0.0 ('Old Town Road + Pony') 64-bit

Writing library : libebml v1.3.9 + libmatroska v1.5.2



Video

ID : 1

Format : HEVC

Format/Info : High Efficiency Video Coding

Format profile : Main [email protected]@High

HDR format : SMPTE ST 2086, HDR10 compatible

Codec ID : V_MPEGH/ISO/HEVC

Duration : 1 h 56 min

Bit rate : 15.5 Mb/s

Width : 3 840 pixels

Height : 1 604 pixels

Display aspect ratio : 2.40:1

Frame rate mode : Constant

Frame rate : 24.000 FPS

Color space : YUV

Chroma subsampling : 4:2:0 (Type 2)

Bit depth : 10 bits

Bits/(Pixel*Frame) : 0.105

Stream size : 12.6 GiB (88%)

Writing library : x265 3.3+10-g08d895bb6:[Windows][GCC 10.0.1][64 bit] 10bit

Encoding settings : cpuid=1111039 / frame-threads=4 / numa-pools=24 / wpp / no-pmode / no-pme / no-psnr / no-ssim / log-level=2 / input-csp=1 / input-res=3840x1604 / interlace=0 / total-frames=167041 / level-idc=51 / high-tier=1 / uhd-bd=0 / ref=5 / no-allow-non-conformance / repeat-headers / annexb / aud / hrd / info / hash=0 / no-temporal-layers / open-gop / min-keyint=24 / keyint=250 / gop-lookahead=0 / bframes=8 / b-adapt=2 / b-pyramid / bframe-bias=0 / rc-lookahead=40 / lookahead-slices=8 / scenecut=40 / hist-scenecut=0 / radl=0 / no-splice / no-intra-refresh / ctu=64 / min-cu-size=8 / no-rect / no-amp / max-tu-size=32 / tu-inter-depth=4 / tu-intra-depth=4 / limit-tu=4 / rdoq-level=0 / dynamic-rd=0.00 / no-ssim-rd / signhide / no-tskip / nr-intra=0 / nr-inter=0 / no-constrained-intra / strong-intra-smoothing / max-merge=4 / limit-refs=1 / no-limit-modes / me=1 / subme=5 / merange=57 / temporal-mvp / no-frame-dup / no-hme / weightp / weightb / no-analyze-src-pics / deblock=-3:-3 / no-sao / no-sao-non-deblock / rd=4 / selective-sao=0 / early-skip / rskip / no-fast-intra / no-tskip-fast / no-cu-lossless / b-intra / no-splitrd-skip / rdpenalty=0 / psy-rd=2.00 / psy-rdoq=0.00 / no-rd-refine / no-lossless / cbqpoffs=0 / crqpoffs=0 / rc=crf / crf=18.0 / qcomp=0.60 / qpstep=4 / stats-write=0 / stats-read=0 / vbv-maxrate=160000 / vbv-bufsize=160000 / vbv-init=0.9 / crf-max=0.0 / crf-min=0.0 / ipratio=1.30 / pbratio=1.15 / aq-mode=1 / aq-strength=0.80 / no-cutree / zone-count=0 / no-strict-cbr / qg-size=32 / no-rc-grain / qpmax=69 / qpmin=0 / no-const-vbv / sar=1 / overscan=0 / videoformat=5 / range=0 / colorprim=9 / transfer=16 / colormatrix=9 / chromaloc=1 / chromaloc-top=2 / chromaloc-bottom=2 / display-window=0 / master-display=G(13250,34500)B(7500,3000)R(34000,16000)WP(15635,16450)L(10000000,1) / cll=2873,482 / min-luma=0 / max-luma=1023 / log2-max-poc-lsb=8 / vui-timing-info / vui-hrd-info / slices=1 / no-opt-qp-pps / no-opt-ref-list-length-pps / no-multi-pass-opt-rps / scenecut-bias=0.05 / hist-threshold=0.01 / no-opt-cu-delta-qp / no-aq-motion / hdr10 / hdr10-opt / no-dhdr10-opt / no-idr-recovery-sei / analysis-reuse-level=0 / analysis-save-reuse-level=0 / analysis-load-reuse-level=0 / scale-factor=0 / refine-intra=0 / refine-inter=0 / refine-mv=1 / refine-ctu-distortion=0 / no-limit-sao / ctu-info=0 / no-lowpass-dct / refine-analysis-type=0 / copy-pic=1 / max-ausize-factor=1.0 / no-dynamic-refine / no-single-sei / no-hevc-aq / no-svt / no-field / qp-adaptation-range=1.00 / no-scenecut-aware-qpconformance-window-offsets / right=0 / bottom=0 / decoder-max-rate=0

Default : Yes

Forced : No

Color range : Limited

Color primaries : BT.2020

Transfer characteristics : PQ

Matrix coefficients : BT.2020 non-constant

Mastering display color pri : Display P3

Mastering display luminance : min: 0.0001 cd/m2, max: 1000 cd/m2

Maximum Content Light Level : 2873 cd/m2

Maximum Frame-Average Light : 482 cd/m2



Audio #1

ID : 2

Format : AC-3

Format/Info : Audio Coding 3

Commercial name : Dolby Digital

Codec ID : A_AC3

Duration : 1 h 57 min

Bit rate mode : Constant

Bit rate : 640 kb/s

Channel(s) : 6 channels

Channel layout : L R C LFE Ls Rs

Sampling rate : 48.0 kHz

Frame rate : 31.250 FPS (1536 SPF)

Compression mode : Lossy

Stream size : 538 MiB (4%)

Title : Dub

Language : Russian

Service kind : Complete Main

Default : Yes

Forced : Yes



Audio #2

ID : 3

Format : E-AC-3

Format/Info : Enhanced AC-3

Commercial name : Dolby Digital Plus

Codec ID : A_EAC3

Duration : 1 h 57 min

Bit rate mode : Constant

Bit rate : 640 kb/s

Channel(s) : 6 channels

Channel layout : L R C LFE Ls Rs

Sampling rate : 48.0 kHz

Frame rate : 31.250 FPS (1536 SPF)

Compression mode : Lossy

Stream size : 538 MiB (4%)

Title : Dub

Language : Russian

Service kind : Complete Main

Default : No

Forced : No



Audio #3

ID : 4

Format : E-AC-3 JOC

Format/Info : Enhanced AC-3 with Joint Object Coding

Commercial name : Dolby Digital Plus with Dolby Atmos

Codec ID : A_EAC3

Duration : 1 h 57 min

Bit rate mode : Constant

Bit rate : 768 kb/s

Channel(s) : 6 channels

Channel layout : L R C LFE Ls Rs

Sampling rate : 48.0 kHz

Frame rate : 31.250 FPS (1536 SPF)

Compression mode : Lossy

Stream size : 645 MiB (4%)

Title : Original

Language : English

Service kind : Complete Main

Default : No

Forced : No

Complexity index : 16

Number of dynamic objects : 15

Bed channel count : 1 channel

Bed channel configuration : LFE



Text #1

ID : 5

Format : UTF-8

Codec ID : S_TEXT/UTF8

Codec ID/Info : UTF-8 Plain Text

Duration : 1 h 55 min

Bit rate : 7 b/s

Count of elements : 178

Stream size : 6.48 KiB (0%)

Title : Forced

Language : Russian

Default : Yes

Forced : Yes



Text #2

ID : 6

Format : UTF-8

Codec ID : S_TEXT/UTF8

Codec ID/Info : UTF-8 Plain Text

Duration : 1 h 55 min

Bit rate : 31 b/s

Count of elements : 675

Stream size : 26.3 KiB (0%)

Title : Full

Language : Russian

Default : No

Forced : No



Text #3

ID : 7

Format : UTF-8

Codec ID : S_TEXT/UTF8

Codec ID/Info : UTF-8 Plain Text

Duration : 1 h 22 min

Bit rate : 6 b/s

Count of elements : 167

Stream size : 3.83 KiB (0%)

Title : FORCED

Language : English

Default : No

Forced : No



Text #4

ID : 8

Format : UTF-8

Codec ID : S_TEXT/UTF8

Codec ID/Info : UTF-8 Plain Text

Duration : 1 h 39 min

Bit rate : 34 b/s

Count of elements : 925

Stream size : 24.9 KiB (0%)

Title : Full

Language : English

Default : No

Forced : No



Релиз от:



Discussion

Comments 0

Post Your Comment

Files in this torrent

FILENAMESIZE
Extraction.2020.NF.WEB-DL.2160p.HDR.seleZen.mkv14.3 GB

Alternative Torrents for 'Extraction NF HDR'.

TORRENT NAMEADDEDSIZESEEDSPEERSHEALTH
5/9/20204.4 GB00
5/5/202014.1 GB00
5/1/202014.3 GB00
5/1/202013.2 GB00
5/1/202013.2 GB00
4/24/20205.5 GB00
4/24/20204.4 GB00